Поиск

2015 Natalia Mateo - Heart Of Darkness {ACT} [24-96]

2015 Natalia Mateo - Heart Of Darkness {ACT} [24-96]
Издатель (лейбл):
Треклист:

01. The Windmills of Your Mind
02. Tonight I'll Sleep in Space
03. Take a Walk On the Wild Side
04. Trudno
05. Inferno
06. Somebody Is Watching Me
07. I Put a Spell On You
08. Strange Fruit
09. Paparazzi
10. Chocolate Jesus
11. Solitudo Diaboli
12. Canto 1
13. Turtle Dove
14. Blue

Доп. инфо:

Формат записи/Источник записи: [TR24][OF]
Наличие водяных знаков: Нет
Год издания/переиздания диска: 2015
Продолжительность: 00:57:41
Наличие сканов в содержимом раздачи: Буклет PDF + сканы
Источник (релизер): qobuz

Контейнер: FLAC (*.flac)
Тип рипа: tracks
Разрядность: 24/96
Формат: PCM
Количество каналов: 2.0
Доп. информация: http://www.natalia-mateo.com/

Лог проверки качества
foobar2000 1.3.7 / Dynamic Range Meter 1.1.1
log date: 2018-12-10 16:56:28

--------------------------------------------------------------------------------
Analyzed: Natalia Mateo / Heart of Darkness
--------------------------------------------------------------------------------

DR         Peak         RMS     Duration Track
--------------------------------------------------------------------------------
DR8       -0.77 dB   -11.17 dB      4:02 01-The Windmills of Your Mind
DR8       -0.77 dB   -11.06 dB      2:27 02-Tonight I'll Sleep in Space
DR12      -0.77 dB   -15.62 dB      4:03 03-Take a Walk On the Wild Side
DR10      -0.77 dB   -14.17 dB      3:36 04-Trudno
DR11      -1.28 dB   -14.88 dB      5:50 05-Inferno
DR7       -0.77 dB   -12.47 dB      4:28 06-Somebody Is Watching Me
DR7       -0.77 dB    -9.74 dB      3:18 07-I Put a Spell On You
DR11      -0.77 dB   -17.12 dB      4:31 08-Strange Fruit
DR8       -0.77 dB   -11.31 dB      3:41 09-Paparazzi
DR8       -0.77 dB   -12.02 dB      4:00 10-Chocolate Jesus
DR8       -0.77 dB   -11.73 dB      6:05 11-Solitudo Diaboli
DR11      -0.85 dB   -14.36 dB      2:43 12-Canto 1
DR9       -0.77 dB   -13.85 dB      4:49 13-Turtle Dove
DR8       -0.77 dB   -11.97 dB      4:10 14-Blue
--------------------------------------------------------------------------------

Number of tracks:  14
Official DR value: DR9

Samplerate:        96000 Hz
Channels:          2
Bits per sample:   24
Bitrate:           2675 kbps
Codec:             FLAC
================================================================================
Приватный:
Нет (DHT включён)
Размер:
1.11 Гб (1,196,775,193 байт) » файлов: 24
Участники:
0 раздают, 0 качают (0 участников всего)
Внешние участники:
--- [ Обновить ]
Нет сидеров - пишите личное сообщение M0p94ok. Не нравятся торренты? Участники группы Pro-jazz Club могут заказать прямую ссылку на скачивание из облака.
No seeders - write a personal message to M0p94ok. Don't like torrents? Members of Pro-jazz Club group can order a direct download link from the cloud.
18:00
24
Нет комментариев. Ваш будет первым!