Вы используете незарегистрированную версию компонента "Вкладки"!

Поиск

2019 Patricia Barber - Higher {ArtistShare} [24-352,8]

2019 Patricia Barber - Higher {ArtistShare} [24-352,8]
Стили:
Битрейт аудио:
lossless
Доп. инфо:

Формат записи/Источник записи: [DXD][OF]
Наличие водяных знаков: Нет
Год издания/переиздания диска: 2019 / 2020
Издатель (лейбл): ArtistShare (Self Release)
Продолжительность: 55:18
Наличие сканов в содержимом раздачи: Буклет PDF

Контейнер: FLAC (*.flac)
Тип рипа: tracks
Разрядность: 24/352.8
Формат: DXD
Количество каналов: 2.0

Источник (релизер): https://www.nativedsd.com/albums/IMP7001D-higher

Лог проверки качества
foobar2000 1.5.2 / Dynamic Range Meter 1.1.1
log date: 2020-08-22 12:59:48

--------------------------------------------------------------------------------
Analyzed: Patricia Barber / Higher
--------------------------------------------------------------------------------

DR         Peak         RMS     Duration Track
--------------------------------------------------------------------------------
DR15      -6.46 dB   -27.18 dB      5:44 01-Muse
DR13      -5.94 dB   -24.19 dB      5:44 02-Surrender
DR13      -4.32 dB   -23.36 dB      3:49 03-Pallid Angel
DR17       0.00 dB   -22.20 dB      4:30 04-Opera Song
DR13      -3.18 dB   -23.60 dB      3:30 05-High Summer Season
DR16       0.00 dB   -21.21 dB      5:26 06-Albatros Song
DR13      -3.74 dB   -26.15 dB      4:26 07-Voyager
DR13      -8.67 dB   -27.42 dB      3:12 08-Higher
DR13      -6.48 dB   -25.87 dB      5:23 09-Early Autumn
DR15       0.00 dB   -19.93 dB      6:09 10-in Your Own Sweet Way
DR15      -1.20 dB   -19.54 dB      2:41 11-Secret Love
DR17      -0.64 dB   -23.21 dB      4:44 12-Opera Song with Katherine Werbiansky
--------------------------------------------------------------------------------

Number of tracks:  12
Official DR value: DR14

Samplerate:        352800 Hz
Channels:          2
Bits per sample:   24
Bitrate:           8120 kbps
Codec:             FLAC
================================================================================
Any questions - support@pro-jazz.com. Есть вопросы - support@pro-jazz.com
12:43
302
Нет комментариев. Ваш будет первым!