Вы используете незарегистрированную версию компонента "Вкладки"!

Поиск

1961 Nina Simone - Forbidden Fruit (2019 Remastered) {RevOla} [24-44,1]

1961 Nina Simone - Forbidden Fruit (2019 Remastered) {RevOla} [24-44,1]
Издатель (лейбл):
Носитель:
WEB
Формат:
PCM
Тип рипа:
tracks
Контейнер:
FLAC (*.flac)
Количество каналов:
2.0
Разрядность/ЧД:
24/44,1
Битрейт аудио:
lossless
Наличие сканов:
web
Страна-производитель диска (релиза):
USA
Релизёр (источник):
M0p94ok
Лог проверки качества
foobar2000 1.5.5 / Dynamic Range Meter 1.1.1
log date: 2020-09-25 13:14:19

--------------------------------------------------------------------------------
Analyzed: Nina Simone / Forbidden Fruit
--------------------------------------------------------------------------------

DR         Peak         RMS     Duration Track
--------------------------------------------------------------------------------
DR11      -3.79 dB   -18.32 dB      4:10 01-Rags And Old Iron (Remastered)
DR11      -4.55 dB   -18.30 dB      3:40 02-No Good Man (Remastered)
DR9       -3.93 dB   -15.84 dB      3:04 03-Gin House Blues (Remastered)
DR8       -4.00 dB   -16.84 dB      5:05 04-I'll Look Around (Remastered)
DR8       -4.92 dB   -16.44 dB      3:25 05-I Love To Love (Remastered)
DR11      -2.82 dB   -18.42 dB      2:35 06-Work Song (Remastered)
DR9       -4.57 dB   -16.75 dB      2:52 07-Where Can I Go Without You (Remastered)
DR10      -3.33 dB   -17.42 dB      6:36 08-Just Say I Love Him (English Version Remastered)
DR10      -4.37 dB   -19.47 dB      2:39 09-Memphis In June (Remastered)
DR10      -2.46 dB   -18.22 dB      3:48 10-Forbidden Fruit (Remastered)
--------------------------------------------------------------------------------

Number of tracks:  10
Official DR value: DR10

Samplerate:        44100 Hz
Channels:          2
Bits per sample:   24
Bitrate:           1425 kbps
Codec:             FLAC
================================================================================
Any questions - support@pro-jazz.com. Есть вопросы - support@pro-jazz.com
14:02
220
Нет комментариев. Ваш будет первым!