Вы используете незарегистрированную версию компонента "Вкладки"!

Поиск

2011 Anette Askvik - Liberty (2020) {Bird} [24-48]

2011 Anette Askvik - Liberty (2020) {Bird} [24-48]
Битрейт аудио:
lossless
Доп. инфо:

Формат записи/Источник записи: [TR24][OF]
Наличие водяных знаков: Нет
Год издания/переиздания диска: 2011/2020
Издатель (лейбл): Bird Records
Продолжительность: 00:46:34
Наличие сканов в содержимом раздачи: Только обложка альбома
Источник (релизер): highresaudio

Контейнер: FLAC (*.flac)
Тип рипа: tracks
Разрядность: 24/48
Формат: PCM
Количество каналов: 2.0
Доп. информация: http://www.anetteaskvik.com/

Лог проверки качества
foobar2000 1.1.15 / Dynamic Range Meter 1.1.1
log date: 2020-08-24 13:52:07

--------------------------------------------------------------------------------
Analyzed: Anette Askvik / Liberty
--------------------------------------------------------------------------------

DR         Peak         RMS     Duration Track
--------------------------------------------------------------------------------
DR11      -0.24 dB   -15.36 dB      5:45 01-Liberty
DR11      -0.82 dB   -15.66 dB      3:41 02-The Bird Song
DR9       -0.24 dB   -12.72 dB      4:00 03-April
DR10      -0.24 dB   -13.79 dB      4:32 04-Under the Tallest Tree
DR9       -0.24 dB   -12.62 dB      5:53 05-Blue Lights
DR10      -0.30 dB   -13.96 dB      3:17 06-Time to Move On
DR8       -0.80 dB   -13.76 dB      5:19 07-Bring Her Home
DR11      -0.50 dB   -14.98 dB      5:44 08-Without Permission
DR11      -0.24 dB   -14.91 dB      4:17 09-You Shoot Me
DR9       -3.08 dB   -16.24 dB      4:06 10-Days Like This
--------------------------------------------------------------------------------

Number of tracks:  10
Official DR value: DR10

Samplerate:        48000 Hz
Channels:          2
Bits per sample:   24
Bitrate:           1487 kbps
Codec:             FLAC
================================================================================
Any questions - support@pro-jazz.com. Есть вопросы - support@pro-jazz.com
15:01
364
Нет комментариев. Ваш будет первым!