Вы используете незарегистрированную версию компонента "Вкладки"!

Поиск

2016 Paulo Morello, Tizian Jost & Erivelton Silva - Afternoon in Rio {IN+OUT} [24-44,1]

2016 Paulo Morello, Tizian Jost & Erivelton Silva - Afternoon in Rio {IN+OUT} [24-44,1]
Место записи:
Lunch Productions
Носитель:
WEB
Формат:
PCM
Тип рипа:
tracks+.cue
Контейнер:
FLAC (*.flac)
Количество каналов:
2.0
Разрядность/ЧД:
24/44,1
Битрейт аудио:
lossless
Время звучания:
00:52:25
Наличие сканов:
web
Релизёр (источник):
M0p94ok
Лог проверки качества
foobar2000 1.5.5 / Dynamic Range Meter 1.1.1
log date: 2020-09-25 15:20:18

--------------------------------------------------------------------------------
Analyzed: Paulo Morello, Tizian Jost & Erivelton Silva / Afternoon in Rio
--------------------------------------------------------------------------------

DR         Peak         RMS     Duration Track
--------------------------------------------------------------------------------
DR10      -1.05 dB   -12.72 dB      3:58 01-Afternoon in Rio
DR10      -1.05 dB   -12.10 dB      4:43 02-Canto da Liberdade
DR12      -1.05 dB   -14.06 dB      2:18 03-Rebuliço
DR10      -1.05 dB   -11.74 dB      4:36 04-Let's Vamos
DR11      -1.05 dB   -13.37 dB      3:39 05-Eternally Touched
DR12      -1.06 dB   -14.00 dB      2:49 06-Você Vai Ver
DR10      -1.05 dB   -12.66 dB      4:16 07-Balanço Do Gringo
DR11      -1.05 dB   -13.69 dB      6:07 08-Na Hora da Paixão
DR11      -1.05 dB   -13.70 dB      3:38 09-Santo Amaro
DR11      -1.06 dB   -13.61 dB      4:01 10-Soft Rain
DR10      -1.05 dB   -12.63 dB      3:14 11-Eu Viajei Para Nova York
DR11      -1.05 dB   -13.46 dB      4:50 12-Noites Cariocas
DR9       -1.05 dB   -11.38 dB      4:23 13-Let's Vamos, Alternate Take
--------------------------------------------------------------------------------

Number of tracks:  13
Official DR value: DR11

Samplerate:        44100 Hz
Channels:          2
Bits per sample:   24
Bitrate:           1555 kbps
Codec:             FLAC
================================================================================
Any questions - support@pro-jazz.com. Есть вопросы - support@pro-jazz.com
15:29
231
Нет комментариев. Ваш будет первым!