Вы используете незарегистрированную версию компонента "Вкладки"!

Поиск

2011 Andre Manoukian - Melanchology {Universal Music France} [24-48]

2011 Andre Manoukian - Melanchology {Universal Music France} [24-48]
Издатель (лейбл):
Битрейт аудио:
lossless
Доп. инфо:

Формат записи/Источник записи: [TR24][OF]
Наличие водяных знаков: Нет
Год издания/переиздания диска: 2011
Продолжительность: 00:46:53
Наличие сканов в содержимом раздачи: Да (сканы)
Источник (релизер): qobuz

Контейнер: FLAC (*.flac)
Тип рипа: tracks
Разрядность: 24/48
Формат: PCM
Количество каналов: 2.0

Лог проверки качества
foobar2000 1.1.15 / Dynamic Range Meter 1.1.1
log date: 2020-08-25 20:51:23

--------------------------------------------------------------------------------
Analyzed: André Manoukian / Melanchology (1-9)
          Elina Duni / Melanchology (10-12)
--------------------------------------------------------------------------------

DR         Peak         RMS     Duration Track
--------------------------------------------------------------------------------
DR8       -0.40 dB   -11.45 dB      3:48 01-Melanchology
DR9       -0.40 dB   -10.92 dB      3:09 02-Baalbek
DR8       -0.40 dB   -12.39 dB      3:40 04-Psychedelight
DR8       -0.40 dB   -11.19 dB      4:49 05-Kele Kele
DR9       -0.40 dB   -10.54 dB      3:03 06-New York/Erevan
DR8       -0.40 dB   -10.68 dB      3:39 08-Noah Was There
DR9       -0.40 dB   -13.39 dB      4:18 09-Naïvidad
DR7       -0.40 dB   -10.76 dB      4:21 10-Dele Yaman
DR8       -0.40 dB   -11.46 dB      4:05 11-Three Notes
DR10      -0.40 dB   -12.07 dB      4:21 03-Macadam Colosse
DR9       -0.40 dB   -10.70 dB      4:07 07-Aman (E Kam Nji Babe)
DR8       -0.40 dB   -12.15 dB      3:31 12-N'At Zaman (Të Njasaj Furie)
--------------------------------------------------------------------------------

Number of tracks:  12
Official DR value: DR8

Samplerate:        48000 Hz
Channels:          2
Bits per sample:   24
Bitrate:           1487 kbps
Codec:             FLAC
================================================================================
Any questions - support@pro-jazz.com. Есть вопросы - support@pro-jazz.com
22:41
230
Нет комментариев. Ваш будет первым!