Вы используете незарегистрированную версию компонента "Вкладки"!

Поиск

1956 Rahsaan Roland Kirk - Early Days - Triple Threat (2019 Remastered) {RevOla} [24-44,1]

1956 Rahsaan Roland Kirk - Early Days - Triple Threat (2019 Remastered) {RevOla} [24-44,1]
Стили:
Дата записи диска:
9 ноября 1956
Место записи:
New York City, NY, USA
Издатель (лейбл):
Носитель:
WEB
Формат:
PCM
Тип рипа:
tracks+.cue
Контейнер:
FLAC (*.flac)
Количество каналов:
2.0
Разрядность/ЧД:
24/44,1
Битрейт аудио:
lossless
Время звучания:
00:29:21
Наличие сканов:
web
Страна-производитель диска (релиза):
USA
Релизёр (источник):
M0p94ok
Доп. инфо:

Re-released on the Bethlehem label as Third Dimension and on the Affinity label as Early Roots

Лог проверки качества
foobar2000 1.5.5 / Dynamic Range Meter 1.1.1
log date: 2020-09-25 23:21:14

--------------------------------------------------------------------------------
Analyzed: Rahsaan Roland Kirk / Early Days/Triple Threat
--------------------------------------------------------------------------------

DR         Peak         RMS     Duration Track
--------------------------------------------------------------------------------
DR10      -2.10 dB   -13.38 dB      2:52 01-Roland's Theme (Remastered)
DR10      -2.07 dB   -13.27 dB      6:52 02-Slow Groove (Remastered)
DR9       -1.96 dB   -12.56 dB      4:38 03-Stormy Weather (Remastered)
DR9       -2.73 dB   -13.79 dB      5:33 04-The Nearness Of You (Remastered)
DR10      -2.15 dB   -12.89 dB      2:23 05-A La Carte (Remastered)
DR9       -1.91 dB   -13.22 dB      4:40 06-Easy Living (Remastered)
DR10      -1.73 dB   -13.14 dB      2:24 07-Triple Threat (Remastered)
--------------------------------------------------------------------------------

Number of tracks:  7
Official DR value: DR9

Samplerate:        44100 Hz
Channels:          2
Bits per sample:   24
Bitrate:           929 kbps
Codec:             FLAC
================================================================================
Any questions - support@pro-jazz.com. Есть вопросы - support@pro-jazz.com
23:37
250
Нет комментариев. Ваш будет первым!