Вы используете незарегистрированную версию компонента "Вкладки"!

Поиск

2015 Mohamed Abozekry and Heejaz Extended - Ring Road (Bonus Track Version) {Jazz Village} [24-88,2]

2015 Mohamed Abozekry and Heejaz Extended - Ring Road (Bonus Track Version) {Jazz Village} [24-88,2]
Дата записи диска:
октябрь 2014
Место записи:
Studios La Buissonne, Pernes les Fontaines, France
Издатель (лейбл):
Номер по каталогу:
JV 570044
Носитель:
WEB
Формат:
PCM
Тип рипа:
tracks+.cue
Контейнер:
FLAC (*.flac)
Количество каналов:
2.0
Разрядность/ЧД:
24/88,2
Битрейт аудио:
lossless
Время звучания:
01:21:11
Наличие сканов:
да
Страна-производитель диска (релиза):
France
Релизёр (источник):
M0p94ok
Лог проверки качества
foobar2000 1.5.5 / Dynamic Range Meter 1.1.1
log date: 2020-09-25 10:08:57

--------------------------------------------------------------------------------
Analyzed: Mohamed Abozekry and Heejaz Extended / Ring Road (Bonus Track Version)
--------------------------------------------------------------------------------

DR         Peak         RMS     Duration Track
--------------------------------------------------------------------------------
DR10      -0.02 dB   -13.34 dB     11:48 01-Transit
DR10      -0.04 dB   -13.30 dB     10:05 02-Messages
DR11       0.00 dB   -12.89 dB     11:14 03-Poisson Rouge
DR10      -0.08 dB   -11.64 dB     12:43 04-Ring Road
DR11      -0.10 dB   -15.52 dB      5:29 05-Sérague
DR10      -0.05 dB   -11.45 dB     10:09 06-Sabir
DR9       -0.06 dB   -12.09 dB     13:01 07-African Salad
DR10      -0.06 dB   -12.10 dB      6:48 08-La Nuit à Santa Cruz (Bonus Track)
--------------------------------------------------------------------------------

Number of tracks:  8
Official DR value: DR10

Samplerate:        88200 Hz
Channels:          2
Bits per sample:   24
Bitrate:           2514 kbps
Codec:             FLAC
================================================================================
Any questions - support@pro-jazz.com. Есть вопросы - support@pro-jazz.com
10:20
249
Нет комментариев. Ваш будет первым!