Вы используете незарегистрированную версию компонента "Вкладки"!

Поиск

2019 Muggsy Spanier - Don't Get Around Much Anymore {Nagel-Heyer} [24-44,1]

2019 Muggsy Spanier - Don't Get Around Much Anymore {Nagel-Heyer} [24-44,1]
Стили:
Доп. инфо:

Формат записи/Источник записи: [TR24][OF]
Наличие водяных знаков: Нет
Год издания/переиздания диска: 2019
Издатель (лейбл): Nagel-Heyer Records
Продолжительность: 01:10:00
Наличие сканов в содержимом раздачи: Только обложка альбома

Контейнер: FLAC (*.flac)
Тип рипа: tracks
Разрядность: 24/44,1
Формат: PCM
Количество каналов: 2.0

Источник : qobuz.com

Лог проверки качества
foobar2000 1.3.9 / Dynamic Range Meter 1.1.1
log date: 2020-01-31 14:00:50

--------------------------------------------------------------------------------
Analyzed: Muggsy Spanier / Don't Get Around Much Anymore
--------------------------------------------------------------------------------

DR         Peak         RMS     Duration Track
--------------------------------------------------------------------------------
DR13      -1.87 dB   -18.25 dB      2:56 01-Lonesome Road
DR12      -1.86 dB   -15.35 dB      3:03 02-Big Butter And Egg Man
DR11      -1.85 dB   -15.06 dB      2:31 03-That Da Da Strain
DR11      -1.87 dB   -15.23 dB      2:44 04-Someday Sweetheart
DR11      -1.85 dB   -14.75 dB      2:40 05-Eccentric (That Eccentric Rag)
DR16      -1.93 dB   -20.38 dB      2:43 06-Dinah
DR14      -2.10 dB   -18.93 dB      2:39 07-(What Did I Do to Be So) Black And Blue
DR12      -1.86 dB   -15.20 dB      2:53 08-At The Jazz Band Ball
DR11      -1.86 dB   -15.03 dB      2:55 09-I Wish I Could Shimmy Like My Sister Kate
DR12      -1.87 dB   -17.25 dB      3:16 10-Relaxin' At The Touro
DR12      -1.95 dB   -16.39 dB      2:29 11-Dippermouth Blues
DR12      -1.85 dB   -15.40 dB      2:49 12-Riverboat Shuffle
DR10      -4.56 dB   -16.28 dB      2:37 13-Chicago (That Toddling Town)
DR14      -1.86 dB   -17.67 dB      2:34 14-Mandy, Make Up Your Mind
DR12      -1.85 dB   -15.27 dB      2:40 15-Bluin' The Blues
DR13      -1.87 dB   -16.73 dB      2:57 16-Livery Stable Blues (Barnyard Blues)
DR11      -1.85 dB   -14.49 dB      2:35 17-At Sundown
DR12      -1.89 dB   -16.82 dB      3:01 18-Lonesome Road II
DR12      -1.87 dB   -15.80 dB      2:44 19-Riverboat Shuffle II
DR11      -1.85 dB   -14.09 dB      3:04 20-Big Butter And Egg Man II
DR10      -1.87 dB   -14.20 dB      2:47 21-Someday Sweetheart II
DR11      -1.85 dB   -14.80 dB      2:31 22-That Da Da Strain II
DR13      -1.86 dB   -16.58 dB      2:35 23-Mandy, Make Up Your Mind II
DR11      -1.87 dB   -15.89 dB      3:16 24-Relaxin' At The Touro II
DR13      -1.85 dB   -16.23 dB      3:02 25-Livery Stable Blues (Barnyard Blues) II
--------------------------------------------------------------------------------

Number of tracks:  25
Official DR value: DR12

Samplerate:        44100 Hz
Channels:          2
Bits per sample:   24
Bitrate:           1373 kbps
Codec:             FLAC
================================================================================
Any questions - support@pro-jazz.com. Есть вопросы - support@pro-jazz.com
12:16
347
Нет комментариев. Ваш будет первым!