Вы используете незарегистрированную версию компонента "Вкладки"!

Поиск

2014 Melingo (Daniel Melingo) - Linyera (Deluxe Edition) {World Village} [24-88,2]

2014 Melingo (Daniel Melingo) - Linyera (Deluxe Edition) {World Village} [24-88,2]
Доп. инфо:

Формат записи/Источник записи: [TR24][OF]
Наличие водяных знаков: Нет
Год издания/переиздания диска: 2014
Издатель (лейбл): World Village
Продолжительность: 01:09:12
Наличие сканов в содержимом раздачи: Буклет PDF
Источник (релизер): highresaudio

Контейнер: FLAC (*.flac)
Тип рипа: tracks
Разрядность: 24/88,2
Формат: PCM
Количество каналов: 2.0

Доп. информация: http://www.danielmelingo.com

Лог проверки качества
foobar2000 1.1.15 / Dynamic Range Meter 1.1.1
log date: 2020-01-31 14:39:12

--------------------------------------------------------------------------------
Analyzed: Melingo / Linyera (Deluxe Edition)
--------------------------------------------------------------------------------

DR         Peak         RMS     Duration Track
--------------------------------------------------------------------------------
DR7       -0.10 dB    -8.53 dB      5:09 01-La Canciòn Del Linyera
DR9       -0.10 dB   -10.65 dB      3:50 02-Garrapatea
DR9       -0.10 dB   -11.23 dB      4:13 03-Que Serà De Ti
DR7       -0.10 dB   -11.05 dB      7:43 04-La Maceta
DR9       -0.10 dB   -12.05 dB      3:51 05-Televidente
DR7       -0.10 dB   -10.03 dB      3:01 06-La Noche
DR8       -0.10 dB    -9.41 dB      2:48 07-Despues De Pasar
DR8       -0.10 dB   -10.48 dB      6:02 08-Volver A Los Diesisiete
DR7       -0.10 dB    -9.87 dB      5:13 09-Soneto Para Daniel Reguera
DR9       -0.10 dB   -10.84 dB      2:38 10-Aguita De Javel
DR7       -0.10 dB    -8.70 dB      3:51 11-Candonga
DR10      -0.10 dB   -12.11 dB      5:42 12-Juan Salvo, El Eternauta
DR6       -0.10 dB    -8.13 dB      7:13 13-Gritos En La Sombra (Pablo Guadalupe remix) (Bonus Track)
DR7       -0.10 dB   -10.21 dB      8:00 14-La Maceta (Pablo Guadalupe dub experience) (Bonus Track)
--------------------------------------------------------------------------------

Number of tracks:  14
Official DR value: DR8

Samplerate:        88200 Hz
Channels:          2
Bits per sample:   24
Bitrate:           2398 kbps
Codec:             FLAC
================================================================================
Any questions - support@pro-jazz.com. Есть вопросы - support@pro-jazz.com
14:33
367
Нет комментариев. Ваш будет первым!