Вы используете незарегистрированную версию компонента "Вкладки"!

Поиск

1973 Muggsy Spanier & Sidney Bechet - Ragtime Jazz (2019) {43 North Broadway} [24-44,1]

1973 Muggsy Spanier & Sidney Bechet - Ragtime Jazz (2019) {43 North Broadway} [24-44,1]
Стили:
Доп. инфо:

Формат записи/Источник записи: [TR24][OF]
Наличие водяных знаков: Нет
Год издания/переиздания диска: 1973/2019
Издатель (лейбл): 43 North Broadway, LLC.
Продолжительность: 33:45
Наличие сканов в содержимом раздачи: Только обложка альбома

Контейнер: FLAC (*.flac)
Тип рипа: tracks
Разрядность: 24/44,1
Формат: PCM
Количество каналов: 2.0

Источник: qobuz.com

Лог проверки качества
foobar2000 1.3.9 / Dynamic Range Meter 1.1.1
log date: 2020-01-31 16:36:56

--------------------------------------------------------------------------------
Analyzed: Muggsy Spanier & Sidney Bechet / Ragtime Jazz
--------------------------------------------------------------------------------

DR         Peak         RMS     Duration Track
--------------------------------------------------------------------------------
DR10      -1.22 dB   -13.92 dB      4:23 01-Sweet Lorraine
DR11      -1.74 dB   -16.02 dB      4:13 02-Lazy River
DR10      -1.87 dB   -15.11 dB      3:56 03-China Boy
DR11      -2.47 dB   -15.33 dB      4:06 04-Four Or Five Times
DR11      -1.31 dB   -14.23 dB      4:12 05-That's A Plenty
DR10      -1.22 dB   -12.93 dB      3:54 06-Squeeze Me
DR10      -1.21 dB   -12.81 dB      4:08 07-Sweet Sue
DR12      -1.21 dB   -15.42 dB      2:18 08-Jazz Me Blues
DR11      -1.21 dB   -13.67 dB      2:35 09-Panama
--------------------------------------------------------------------------------

Number of tracks:  9
Official DR value: DR11

Samplerate:        44100 Hz
Channels:          2
Bits per sample:   24
Bitrate:           1535 kbps
Codec:             FLAC
================================================================================
Any questions - support@pro-jazz.com. Есть вопросы - support@pro-jazz.com
12:53
320
Нет комментариев. Ваш будет первым!