Вы используете незарегистрированную версию компонента "Вкладки"!

Поиск

2006 Pat Metheny, Brad Mehldau - Metheny Mehldau (2018) {Nonesuch} [24-96]

2006 Pat Metheny, Brad Mehldau - Metheny Mehldau (2018) {Nonesuch} [24-96]
Дата издания диска:
12 сентября 2006
Издатель (лейбл):
Носитель:
WEB
Формат:
PCM
Тип рипа:
tracks+.cue
Контейнер:
FLAC (*.flac)
Количество каналов:
2.0
Разрядность/ЧД:
24/96
Время звучания:
01:06:03
Наличие сканов:
web
Страна-производитель диска (релиза):
USA
Релизёр (источник):
M0p94ok
Лог проверки качества
foobar2000 1.4.3 / Dynamic Range Meter 1.1.1
log date: 2020-03-27 10:11:52

--------------------------------------------------------------------------------
Analyzed: Pat Metheny, Brad Mehldau / Metheny Mehldau
--------------------------------------------------------------------------------

DR         Peak         RMS     Duration Track
--------------------------------------------------------------------------------
DR11      -0.31 dB   -15.30 dB      5:01 01-Unrequited
DR12      -0.30 dB   -14.24 dB      6:35 02-Ahmid-6
DR13      -0.32 dB   -16.36 dB      6:25 03-Summer Day
DR11      -0.30 dB   -12.72 dB      7:35 04-Ring of Life
DR12      -0.30 dB   -14.81 dB      7:02 05-Legend
DR13      -0.93 dB   -19.72 dB      6:07 06-Find Me in Your Dreams
DR11      -0.30 dB   -13.87 dB      7:15 07-Say the Brother's Name
DR11      -0.30 dB   -13.77 dB      7:24 08-Bachelor's III
DR12      -0.30 dB   -14.97 dB      5:33 09-Annie's Bittersweet Cake
DR9       -0.30 dB   -14.59 dB      7:07 10-Make Peace
--------------------------------------------------------------------------------

Number of tracks:  10
Official DR value: DR12

Samplerate:        96000 Hz
Channels:          2
Bits per sample:   24
Bitrate:           2621 kbps
Codec:             FLAC
================================================================================
Any questions - support@pro-jazz.com. Есть вопросы - support@pro-jazz.com
10:50
317
Нет комментариев. Ваш будет первым!