Поиск

2019 Miho Hazama - Dancer in Nowhere {Sunnyside} [CD]

2019 Miho Hazama - Dancer in Nowhere {Sunnyside} [CD]
Дата записи диска:
22 августа - 23 августа 2018
Место записи:
Sound on Sound Studios, NJ, USA
Дата издания диска:
8 февраля 2019
Издатель (лейбл):
Номер по каталогу:
SSC 1546
Носитель:
CD
Тип рипа:
tracks+.cue
Аудиокодек:
FLAC (*.flac)
Битрейт аудио:
lossless
Время звучания:
01:05:20
Наличие сканов:
только обложка
Страна-производитель диска (релиза):
USA
Релизёр (источник):
catfish27
Лог создания рипа
X Lossless Decoder version 20191004 (152.0)

XLD extraction logfile from 2020-03-01 20:47:43 -0800

Miho Hazama / Dancer in Nowhere

Used drive : PIONEER BD-RW   BDR-XD05 (revision 3.10)
Media type : Pressed CD

Ripper mode             : XLD Secure Ripper
Disable audio cache     : OK for the drive with a cache less than 1375KiB
Make use of C2 pointers : NO
Read offset correction  : 667
Max retry count         : 100
Gap status              : Analyzed, Appended (except HTOA)

TOC of the extracted CD
     Track |   Start  |  Length  | Start sector | End sector
    ---------------------------------------------------------
        1  | 00:00:00 | 08:08:29 |         0    |    36628
        2  | 08:08:29 | 08:07:16 |     36629    |    73169
        3  | 16:15:45 | 07:11:43 |     73170    |   105537
        4  | 23:27:13 | 09:49:50 |    105538    |   149762
        5  | 33:16:63 | 09:01:34 |    149763    |   190371
        6  | 42:18:22 | 08:11:13 |    190372    |   227209
        7  | 50:29:35 | 06:13:06 |    227210    |   255190
        8  | 56:42:41 | 08:38:25 |    255191    |   294065
        9  | 67:52:66 | 00:14:26 |    305466    |   306541

AccurateRip Summary (DiscID: 0014839f-008947ec-7b0ff709)
    Track 01 : OK (v2, confidence 1/1)
    Track 02 : OK (v2, confidence 1/1)
    Track 03 : OK (v2, confidence 1/1)
    Track 04 : OK (v2, confidence 1/1)
    Track 05 : OK (v2, confidence 1/1)
    Track 06 : OK (v2, confidence 1/1)
    Track 07 : OK (v2, confidence 1/1)
    Track 08 : OK (v2, confidence 1/1)
        ->All tracks accurately ripped.

All Tracks
    Album gain               : -6.07 dB
    Peak                     : 0.999969
    Statistics
        Read error                           : 0
        Jitter error (maybe fixed)           : 0
        Retry sector count                   : 0
        Damaged sector count                 : 0

Track 01
    Filename : /Volumes/Hollywood and Vine/Rips/Miho Hazama - Dancer in Nowhere (2018) [FLAC]/01 Today, Not Today.flac
    Pre-gap length : 00:02:00

    Track gain               : -5.74 dB
    Peak                     : 0.987671
    CRC32 hash (test run)    : 68598A24
    CRC32 hash               : 68598A24
    CRC32 hash (skip zero)   : B3B137FF
    AccurateRip v1 signature : 8A38C1F1
    AccurateRip v2 signature : A5862AD7
        ->Accurately ripped (v2, confidence 1/1)
    Statistics
        Read error                           : 0
        Jitter error (maybe fixed)           : 0
        Retry sector count                   : 0
        Damaged sector count                 : 0

Track 02
    Filename : /Volumes/Hollywood and Vine/Rips/Miho Hazama - Dancer in Nowhere (2018) [FLAC]/02 The Cyclic Number.flac
    Pre-gap length : 00:04:74

    Track gain               : -5.45 dB
    Peak                     : 0.999969
    CRC32 hash (test run)    : 4765A351
    CRC32 hash               : 4765A351
    CRC32 hash (skip zero)   : 268F3C65
    AccurateRip v1 signature : 02BD2460
    AccurateRip v2 signature : 9AC64BA5
        ->Accurately ripped (v2, confidence 1/1)
    Statistics
        Read error                           : 0
        Jitter error (maybe fixed)           : 0
        Retry sector count                   : 0
        Damaged sector count                 : 0

Track 03
    Filename : /Volumes/Hollywood and Vine/Rips/Miho Hazama - Dancer in Nowhere (2018) [FLAC]/03 RUN.flac
    Pre-gap length : 00:04:74

    Track gain               : -6.66 dB
    Peak                     : 0.987701
    CRC32 hash (test run)    : D105E5A9
    CRC32 hash               : D105E5A9
    CRC32 hash (skip zero)   : 5CDC3C01
    AccurateRip v1 signature : ACD165A4
    AccurateRip v2 signature : CE6C48F6
        ->Accurately ripped (v2, confidence 1/1)
    Statistics
        Read error                           : 0
        Jitter error (maybe fixed)           : 0
        Retry sector count                   : 0
        Damaged sector count                 : 0

Track 04
    Filename : /Volumes/Hollywood and Vine/Rips/Miho Hazama - Dancer in Nowhere (2018) [FLAC]/04 Somnambulant.flac
    Pre-gap length : 00:04:74

    Track gain               : -4.78 dB
    Peak                     : 0.991211
    CRC32 hash (test run)    : 7E6059D0
    CRC32 hash               : 7E6059D0
    CRC32 hash (skip zero)   : F6AF94C9
    AccurateRip v1 signature : C8F6DB19
    AccurateRip v2 signature : A8044D08
        ->Accurately ripped (v2, confidence 1/1)
    Statistics
        Read error                           : 0
        Jitter error (maybe fixed)           : 0
        Retry sector count                   : 0
        Damaged sector count                 : 0

Track 05
    Filename : /Volumes/Hollywood and Vine/Rips/Miho Hazama - Dancer in Nowhere (2018) [FLAC]/05 Il Paradiso del Blues.flac
    Pre-gap length : 00:04:45

    Track gain               : -6.44 dB
    Peak                     : 0.965302
    CRC32 hash (test run)    : 06C9F5CE
    CRC32 hash               : 06C9F5CE
    CRC32 hash (skip zero)   : A8FE9876
    AccurateRip v1 signature : B1FFD098
    AccurateRip v2 signature : 9CEF27A2
        ->Accurately ripped (v2, confidence 1/1)
    Statistics
        Read error                           : 0
        Jitter error (maybe fixed)           : 0
        Retry sector count                   : 0
        Damaged sector count                 : 0

Track 06
    Filename : /Volumes/Hollywood and Vine/Rips/Miho Hazama - Dancer in Nowhere (2018) [FLAC]/06 Magyar Dance.flac
    Pre-gap length : 00:04:74

    Track gain               : -6.48 dB
    Peak                     : 0.987976
    CRC32 hash (test run)    : 8F8F440D
    CRC32 hash               : 8F8F440D
    CRC32 hash (skip zero)   : 174D9A94
    AccurateRip v1 signature : E00EEF53
    AccurateRip v2 signature : CBC0259C
        ->Accurately ripped (v2, confidence 1/1)
    Statistics
        Read error                           : 0
        Jitter error (maybe fixed)           : 0
        Retry sector count                   : 0
        Damaged sector count                 : 0

Track 07
    Filename : /Volumes/Hollywood and Vine/Rips/Miho Hazama - Dancer in Nowhere (2018) [FLAC]/07 Olympic Fanfare and Theme.flac
    Pre-gap length : 00:04:74

    Track gain               : -6.80 dB
    Peak                     : 0.987732
    CRC32 hash (test run)    : 43A7B06E
    CRC32 hash               : 43A7B06E
    CRC32 hash (skip zero)   : D5BB52A1
    AccurateRip v1 signature : F509887F
    AccurateRip v2 signature : 2B0EF94D
        ->Accurately ripped (v2, confidence 1/1)
    Statistics
        Read error                           : 0
        Jitter error (maybe fixed)           : 0
        Retry sector count                   : 0
        Damaged sector count                 : 0

Track 08
    Filename : /Volumes/Hollywood and Vine/Rips/Miho Hazama - Dancer in Nowhere (2018) [FLAC]/08 Dancer in Nowhere.flac
    Pre-gap length : 00:04:73

    Track gain               : -5.94 dB
    Peak                     : 0.987885
    CRC32 hash (test run)    : FCFB2542
    CRC32 hash               : FCFB2542
    CRC32 hash (skip zero)   : EA63DE3C
    AccurateRip v1 signature : 16B3F297
    AccurateRip v2 signature : D662E179
        ->Accurately ripped (v2, confidence 1/1)
    Statistics
        Read error                           : 0
        Jitter error (maybe fixed)           : 0
        Retry sector count                   : 0
        Damaged sector count                 : 0

No errors occurred

End of status report

-----BEGIN XLD SIGNATURE-----
QvqpaC_QUUz38wcG9nzVGQWl2CM.c3PTVUJz8ID_zpxp.RCGwq8h9T9vgdKgUko6Sqf9TFtSIexk9kktzqbM1wfbboq.RqyFI4KUtjK
-----END XLD SIGNATURE-----
No seeders - write personal message to M0p94ok. Any questions - support@pro-jazz.com.
Нет сидеров - пишите в личку M0p94ok. Есть вопросы - support@pro-jazz.com
17:57
49
Нет комментариев. Ваш будет первым!