Поиск

2019 Marcus Shelby Orchestra - Transitions {MSO} [CD]

2019 Marcus Shelby Orchestra - Transitions {MSO} [CD]
Стили:
Носитель:
CD
Тип рипа:
tracks+.cue
Аудиокодек:
FLAC (*.flac)
Битрейт аудио:
lossless
Время звучания:
00:52:33
Наличие сканов:
только обложка
Страна-производитель диска (релиза):
USA
Релизёр (источник):
cabritinha
Лог создания рипа
Exact Audio Copy V1.3 from 2. September 2016

EAC extraction logfile from 4. January 2020, 0:01

Marcus Shelby Orchestra / Transitions

Used drive  : hp PLDS DVDRW  DU8AESH   Adapter: 1  ID: 0

Read mode               : Secure
Utilize accurate stream : Yes
Defeat audio cache      : Yes
Make use of C2 pointers : No

Read offset correction                      : 6
Overread into Lead-In and Lead-Out          : No
Fill up missing offset samples with silence : Yes
Delete leading and trailing silent blocks   : No
Null samples used in CRC calculations       : Yes
Used interface                              : Native Win32 interface for Win NT & 2000
Gap handling                                : Appended to previous track

Used output format              : User Defined Encoder
Selected bitrate                : 1024 kBit/s
Quality                         : High
Add ID3 tag                     : No
Command line compressor         : C:\Program Files (x86)\Exact Audio Copy\Flac\flac.exe
Additional command line options : -8 -V -T "ARTIST=%artist%" -T "TITLE=%title%" -T "ALBUM=%albumtitle%" -T "DATE=%year%" -T "TRACKNUMBER=%tracknr%" -T "GENRE=%genre%" -T "PERFORMER=%albuminterpret%" -T "COMPOSER=%composer%" %haslyrics%--tag-from-file=LYRICS="%lyricsfile%"%haslyrics% -T "ALBUMARTIST=%albumartist%" -T "DISCNUMBER=%cdnumber%" -T "TOTALDISCS=%totalcds%" -T "TOTALTRACKS=%numtracks%" -T "COMMENT=%comment%" %source% -o %dest%

TOC of the extracted CD

     Track |   Start  |  Length  | Start sector | End sector
    ---------------------------------------------------------
        1  |  0:00.00 |  3:29.09 |         0    |    15683
        2  |  3:29.09 |  3:06.20 |     15684    |    29653
        3  |  6:35.29 |  3:25.04 |     29654    |    45032
        4  | 10:00.33 |  4:12.30 |     45033    |    63962
        5  | 14:12.63 |  7:27.33 |     63963    |    97520
        6  | 21:40.21 |  2:51.73 |     97521    |   110418
        7  | 24:32.19 |  6:19.36 |    110419    |   138879
        8  | 30:51.55 |  5:52.63 |    138880    |   165342
        9  | 36:44.43 |  6:48.57 |    165343    |   195999
       10  | 43:33.25 |  5:43.02 |    196000    |   221726
       11  | 49:16.27 |  3:18.07 |    221727    |   236583

Track  1

     Filename D:\Dropbox\EAC\Marcus Shelby Orchestra - Transitions (2019) [FLAC]\01. Remember Rockefeller at Attica.wav

     Pre-gap length  0:00:02.00

     Peak level 97.7 %
     Extraction speed 2.2 X
     Track quality 99.9 %
     Test CRC D315795A
     Copy CRC D315795A
     Accurately ripped (confidence 2)  [E37AB009]  (AR v2)
     Copy OK

Track  2

     Filename D:\Dropbox\EAC\Marcus Shelby Orchestra - Transitions (2019) [FLAC]\02. On a Turquoise Cloud.wav

     Pre-gap length  0:00:02.01

     Peak level 97.7 %
     Extraction speed 2.4 X
     Track quality 99.9 %
     Test CRC 85B36F33
     Copy CRC 85B36F33
     Accurately ripped (confidence 2)  [EA498EF2]  (AR v2)
     Copy OK

Track  3

     Filename D:\Dropbox\EAC\Marcus Shelby Orchestra - Transitions (2019) [FLAC]\03. Begin the Beguine.wav

     Pre-gap length  0:00:02.00

     Peak level 97.7 %
     Extraction speed 3.2 X
     Track quality 100.0 %
     Test CRC 2D8B2E91
     Copy CRC 2D8B2E91
     Accurately ripped (confidence 2)  [2E8D7FE3]  (AR v2)
     Copy OK

Track  4

     Filename D:\Dropbox\EAC\Marcus Shelby Orchestra - Transitions (2019) [FLAC]\04. Lullaby of Birdland.wav

     Pre-gap length  0:00:01.82

     Peak level 97.7 %
     Extraction speed 3.5 X
     Track quality 100.0 %
     Test CRC 39D19CDF
     Copy CRC 39D19CDF
     Accurately ripped (confidence 2)  [3BB271E3]  (AR v2)
     Copy OK

Track  5

     Filename D:\Dropbox\EAC\Marcus Shelby Orchestra - Transitions (2019) [FLAC]\05. In My Solitude.wav

     Pre-gap length  0:00:02.00

     Peak level 97.7 %
     Extraction speed 4.1 X
     Track quality 100.0 %
     Test CRC BF64E2EB
     Copy CRC BF64E2EB
     Accurately ripped (confidence 2)  [10FCE654]  (AR v2)
     Copy OK

Track  6

     Filename D:\Dropbox\EAC\Marcus Shelby Orchestra - Transitions (2019) [FLAC]\06. It's All Right With Me.wav

     Pre-gap length  0:00:02.12

     Peak level 97.7 %
     Extraction speed 3.1 X
     Track quality 99.9 %
     Test CRC 3160BBED
     Copy CRC 3160BBED
     Accurately ripped (confidence 2)  [51C51BF8]  (AR v2)
     Copy OK

Track  7

     Filename D:\Dropbox\EAC\Marcus Shelby Orchestra - Transitions (2019) [FLAC]\07. Transition I.wav

     Pre-gap length  0:00:02.00

     Peak level 97.7 %
     Extraction speed 4.0 X
     Track quality 99.9 %
     Test CRC 8D6548CB
     Copy CRC 8D6548CB
     Accurately ripped (confidence 2)  [8913F8D4]  (AR v2)
     Copy OK

Track  8

     Filename D:\Dropbox\EAC\Marcus Shelby Orchestra - Transitions (2019) [FLAC]\08. Transition II.wav

     Pre-gap length  0:00:01.94

     Peak level 97.7 %
     Extraction speed 4.8 X
     Track quality 100.0 %
     Test CRC 1F26143B
     Copy CRC 1F26143B
     Accurately ripped (confidence 2)  [7D983476]  (AR v2)
     Copy OK

Track  9

     Filename D:\Dropbox\EAC\Marcus Shelby Orchestra - Transitions (2019) [FLAC]\09. Barnstormin'.wav

     Pre-gap length  0:00:01.41

     Peak level 97.7 %
     Extraction speed 5.2 X
     Track quality 100.0 %
     Test CRC 011B79B4
     Copy CRC 011B79B4
     Accurately ripped (confidence 2)  [46BBB203]  (AR v2)
     Copy OK

Track 10

     Filename D:\Dropbox\EAC\Marcus Shelby Orchestra - Transitions (2019) [FLAC]\10. Blackball Swing.wav

     Pre-gap length  0:00:01.77

     Peak level 97.7 %
     Extraction speed 5.3 X
     Track quality 100.0 %
     Test CRC B821570E
     Copy CRC B821570E
     Accurately ripped (confidence 2)  [0F2299CA]  (AR v2)
     Copy OK

Track 11

     Filename D:\Dropbox\EAC\Marcus Shelby Orchestra - Transitions (2019) [FLAC]\11. Mood Indigo.wav

     Pre-gap length  0:00:01.88

     Peak level 97.7 %
     Extraction speed 5.1 X
     Track quality 100.0 %
     Test CRC 1D93BBF7
     Copy CRC 1D93BBF7
     Accurately ripped (confidence 2)  [4B8E183A]  (AR v2)
     Copy OK

All tracks accurately ripped

No errors occurred

End of status report

---- CUETools DB Plugin V2.1.6

[CTDB TOCID: iHyzJw24R7ljYG9IseKFQDROB2M-] found
Submit result: iHyzJw24R7ljYG9IseKFQDROB2M- has been confirmed
Track | CTDB Status
  1   | (2/2) Accurately ripped
  2   | (2/2) Accurately ripped
  3   | (2/2) Accurately ripped
  4   | (2/2) Accurately ripped
  5   | (2/2) Accurately ripped
  6   | (2/2) Accurately ripped
  7   | (2/2) Accurately ripped
  8   | (2/2) Accurately ripped
  9   | (2/2) Accurately ripped
 10   | (2/2) Accurately ripped
 11   | (2/2) Accurately ripped

==== Log checksum F9CAAF78845D21A440E179C307B24370984764DCC5A4C1F29597EC1A8B6C4F6B ====
No seeders - write personal message to M0p94ok. Any questions - support@pro-jazz.com.
Нет сидеров - пишите в личку M0p94ok. Есть вопросы - support@pro-jazz.com
23:31
49
Нет комментариев. Ваш будет первым!