Поиск

2019 Michele Hendricks - Another Side {Cristal} [24-44.1]

2019 Michele Hendricks - Another Side {Cristal} [24-44.1]
Стили:
Треклист:

01. Cannonball Blues (Cannon Blues)
02. Fulu's Paradise (Fulu)
03. The Saga of Moby Dick (Moby Dick)
04. Trivia Madness
05. Ask Inside (Melopidieron)
06. Mama, You Told Me
07. Regulatecha! (Reggae-Later)
08. Flight of Foos (Flight of the Foo Birds)
09. Why Did You Have to Go?
10. Honk, If Ya Want It
11. Don't Give Your Soul Away
12. Chicken Scratch (Chicken)
13. Il y a des cons partout

Доп. инфо:

Формат записи/Источник записи: [TR24][OF]
Наличие водяных знаков: Нет
Год издания: 2019
Издатель (лейбл): Cristal Publishing
Продолжительность: 00:58:15
Наличие сканов в содержимом раздачи: Только обложка альбома
Контейнер: FLAC (*.flac)
Тип рипа: tracks
Разрядность: 24/44.1
Формат: PCM
Количество каналов: 2.0
Источник (релизер): qobuz.com

Лог проверки качества
foobar2000 1.4 / Dynamic Range Meter 1.1.1
log date: 2019-09-21 14:38:34

--------------------------------------------------------------------------------
Analyzed: Michele Hendricks / Another Side
--------------------------------------------------------------------------------

DR         Peak         RMS     Duration Track
--------------------------------------------------------------------------------
DR7       -0.30 dB    -8.81 dB      4:21 01-Cannonball Blues (Cannon Blues)
DR8       -0.30 dB   -10.05 dB      6:03 02-Fulu's Paradise (Fulu)
DR8       -0.30 dB    -9.29 dB      4:52 03-The Saga of Moby Dick (Moby Dick)
DR8       -0.30 dB   -10.13 dB      5:02 04-Trivia Madness
DR8       -0.30 dB    -9.06 dB      4:51 05-Ask Inside (Melopidieron)
DR7       -0.30 dB    -9.13 dB      3:49 06-Mama, You Told Me
DR8       -0.30 dB   -10.75 dB      3:49 07-Regulatecha! (Reggae-Later)
DR7       -0.30 dB    -9.50 dB      3:28 08-Flight of Foos (Flight of the Foo Birds)
DR9       -0.45 dB   -11.82 dB      5:05 09-Why Did You Have to Go?
DR8       -0.30 dB    -9.74 dB      4:31 10-Honk, If Ya Want It
DR8       -0.30 dB    -9.43 dB      5:04 11-Don't Give Your Soul Away
DR8       -0.30 dB   -10.14 dB      3:45 12-Chicken Scratch (Chicken)
DR8       -0.30 dB    -9.49 dB      3:41 13-Il y a des cons partout
--------------------------------------------------------------------------------

Number of tracks:  13
Official DR value: DR8
Samplerate:        44100 Hz
Channels:          2
Bits per sample:   24
Bitrate:           1662 kbps
Codec:             FLAC
================================================================================
Приватный:
Нет (DHT включён)
Размер:
683.12 Мб (716,301,879 байт) » файлов: 15
Участники:
0 раздают, 0 качают (0 участников всего)
Внешние участники:
12 раздают, 4 качают (16 участников всего) [ Обновить ]
23:24
9
Нет комментариев. Ваш будет первым!