Поиск

2018 Anat Cohen & Fred Hersch - Live in Healdsburg {Anzic} [24-48]

2018 Anat Cohen & Fred Hersch - Live in Healdsburg {Anzic} [24-48]
Треклист:

01. A Lark (Hersch) - 8:23
02. Child's Song (Hersch) - 7:21
03. The Purple Piece (Cohen) - 8:27
04. Isfahan (Strayhorn) - 8:05
05. Lee's Dream (Hersch) - 5:19
06. The Peacocks (Rowles) - 10:25
07. Jitterbug Waltz (Waller) - 8:19
08. Mood Indigo (Encore) (Ellington) - 5:13

Доп. инфо:

Формат записи/Источник записи: [TR24][OF]
Наличие водяных знаков: Нет
Год издания/переиздания диска: 2018
Жанр: Post-Bop, Contemporary Jazz
Издатель (лейбл): Anzic Records
Продолжительность: 01:01:32
Наличие сканов в содержимом раздачи: Буклет PDF

Контейнер: FLAC (*.flac)
Тип рипа: tracks
Разрядность: 24/48
Формат: WAV (flac.ape.wv)
Количество каналов: 2.0

Источник (релизер): redacted: anzicstore

Лог проверки качества
foobar2000 1.4.6 / Dynamic Range Meter 1.1.1
log date: 2019-09-23 19:54:17

--------------------------------------------------------------------------------
Analyzed: Anat Cohen & Fred Hersch / Live in Healdsburg
--------------------------------------------------------------------------------

DR         Peak         RMS     Duration Track
--------------------------------------------------------------------------------
DR13      -0.32 dB   -18.63 dB      8:23 01-A Lark
DR14      -0.41 dB   -21.44 dB      7:21 02-Child's Song
DR13      -0.32 dB   -18.65 dB      8:27 03-The Purple Piece
DR14      -0.32 dB   -20.43 dB      8:05 04-Isfahan
DR13      -0.32 dB   -17.65 dB      5:19 05-Lee's Dream
DR14      -0.32 dB   -21.28 dB     10:25 06-The Peacocks
DR12      -1.32 dB   -19.19 dB      8:19 07-Jitterbug Waltz
DR15      -3.98 dB   -26.14 dB      5:13 08-Mood Indigo (Encore)
--------------------------------------------------------------------------------

Number of tracks:  8
Official DR value: DR14

Samplerate:        48000 Hz
Channels:          2
Bits per sample:   24
Bitrate:           1179 kbps
Codec:             FLAC
================================================================================
Приватный:
Нет (DHT включён)
Размер:
553.36 Мб (580,240,222 байт) » файлов: 13
Участники:
0 раздают, 0 качают (0 участников всего)
Внешние участники:
7 раздают, 2 качают (9 участников всего) [ Обновить ]
11:14
8
Нет комментариев. Ваш будет первым!