Поиск

2013 Ketil Bjornstad - Sunrise: A Cantata on Texts by Edvard Munch {ECM} [24-96]

2013 Ketil Bjornstad - Sunrise: A Cantata on Texts by Edvard Munch {ECM} [24-96]
Стили:
Издатель (лейбл):
Треклист:

01. En rovfugl har satt seg fast i mitt indre (A Bird of Prey Is Clinging to My Inner Being) (7:26)
02. Moren (The Mother) (6:12)
03. Intet er lite (Nothing Is Small) (4:54)
04. Jorden elskede luften (The Earth Loved the Air) (4:29)
05. Resitativ I (Recitative I) (1:00)
06. Stupet (The Cliff) (5:23)
07. Som i en kirke (As If They Were in a Church) (5:23)
08. Intermezzo I (1:49)
09. Livets dans (The Dance of Life) (4:59)
10. Apent vindu (Open Window) (4:32)
11. Resitativ II (Recitative II) (0:58)
12. Adskillelsen (The Separation) (5:48)
13. Intermezzo II (4:09)
14. Gravsten (Gravestone) (4:00)
15. Resitativ III (Recitative III) (0:51)
16. Alfa og Omega (Afla and Omega) (5:23)
17. De fineste nerver er rammet (The Most Delicate Nerves Are Affected) (4:17)
18. Intermezzo III (1:44)
19. Soloppgang (Sunrise) (5:16)

Доп. инфо:

Формат записи/Источник записи: [TR24][OF]
Наличие водяных знаков: Нет
Год издания/переиздания диска: 2013
Жанр: Modern Creative
Издатель (лейбл): ECM Records
Продолжительность: 01:18:33
Наличие сканов в содержимом раздачи: Буклет PDF

Контейнер: FLAC (*.flac)
Тип рипа: tracks
Разрядность: 24/96
Формат: WAV (flac.ape.wv)
Количество каналов: 2.0

Источник (релизер): redacted: prostudiomasters

Лог проверки качества
foobar2000 1.4.6 / Dynamic Range Meter 1.1.1
log date: 2019-09-23 20:48:02

--------------------------------------------------------------------------------
Analyzed: Ketil Bjornstad / Sunrise
--------------------------------------------------------------------------------

DR         Peak         RMS     Duration Track
--------------------------------------------------------------------------------
DR13      -0.65 dB   -19.29 dB      7:26 01-En rovfugl har satt seg fast i mitt indre (A Bird of Prey Is Clinging to My Inner Being)
DR12      -3.29 dB   -19.32 dB      6:12 02-Moren (The Mother)
DR12      -2.88 dB   -18.73 dB      4:54 03-Intet er lite (Nothing Is Small)
DR12      -0.12 dB   -14.23 dB      4:29 04-Jorden elskede luften (The Earth Loved the Air)
DR10      -2.78 dB   -17.25 dB      1:00 05-Resitativ I (Recitative I)
DR13      -2.85 dB   -19.30 dB      5:23 06-Stupet (The Cliff)
DR13      -1.52 dB   -19.51 dB      5:23 07-Som i en kirke (As If They Were in a Church)
DR8       -9.61 dB   -21.16 dB      1:49 08-Intermezzo I
DR13      -0.12 dB   -14.99 dB      4:59 09-Livets dans (The Dance of Life)
DR12      -6.14 dB   -22.12 dB      4:32 10-Apent vindu (Open Window)
DR11      -2.78 dB   -16.64 dB      0:58 11-Resitativ II (Recitative II)
DR11      -4.15 dB   -19.09 dB      5:48 12-Adskillelsen (The Separation)
DR9       -8.20 dB   -21.57 dB      4:09 13-Intermezzo II
DR12      -3.39 dB   -17.67 dB      4:00 14-Gravsten (Gravestone)
DR6      -12.16 dB   -21.45 dB      0:51 15-Resitativ III (Recitative III)
DR11      -4.47 dB   -20.76 dB      5:23 16-Alfa og Omega (Afla and Omega)
DR15      -0.12 dB   -16.20 dB      4:17 17-De fineste nerver er rammet (The Most Delicate Nerves Are Affected)
DR8       -9.13 dB   -20.53 dB      1:44 18-Intermezzo III
DR11      -1.95 dB   -17.31 dB      5:16 19-Soloppgang (Sunrise)
--------------------------------------------------------------------------------

Number of tracks:  19
Official DR value: DR11

Samplerate:        96000 Hz
Channels:          2
Bits per sample:   24
Bitrate:           2821 kbps
Codec:             FLAC
================================================================================
Приватный:
Нет (DHT включён)
Размер:
1.51 Гб (1,622,757,816 байт) » файлов: 24
Участники:
0 раздают, 0 качают (0 участников всего)
Внешние участники:
7 раздают, 2 качают (9 участников всего) [ Обновить ]
14:29
12
Нет комментариев. Ваш будет первым!