Поиск

1982 Everyman Band - Everyman Band (2019) {ECM} [24-96]

1982 Everyman Band - Everyman Band (2019) {ECM} [24-96]
Стили:
Треклист:

01. Morals in the Mud (Torn) - 2:49
02. Japan Smiles (Suchorsky) - 4:44
03. Lonely Streets (Fogel) - 10:42
04. On the Spot (Fogel) - 4:55
05. The Mummy Club (Torn) - 6:46
06. Nuclear Suite (Yaw) - 8:12
07. Fatt Blatt (Fogel) - 5:27

Доп. инфо:

Формат записи/Источник записи: [TR24][OF]
Наличие водяных знаков: Нет
Год издания/переиздания диска: 1982/2019
Жанр: Avant-Garde Jazz
Издатель (лейбл): ECM Records
Продолжительность: 00:43:35
Наличие сканов в содержимом раздачи: Только обложка альбома

Контейнер: FLAC (*.flac)
Тип рипа: tracks
Разрядность: 24/96
Формат: WAV (flac.ape.wv)
Количество каналов: 2.0

Источник (релизер): redacted: highresaudio

Лог проверки качества
foobar2000 1.4.6 / Dynamic Range Meter 1.1.1
log date: 2019-09-23 21:07:37

--------------------------------------------------------------------------------
Analyzed: Everyman Band / Everyman Band
--------------------------------------------------------------------------------

DR         Peak         RMS     Duration Track
--------------------------------------------------------------------------------
DR12      -0.50 dB   -14.88 dB      2:49 01-Morals in the Mud
DR15      -0.51 dB   -17.50 dB      4:44 02-Japan Smiles
DR15      -0.73 dB   -20.29 dB     10:42 03-Lonely Streets
DR15      -1.72 dB   -19.32 dB      4:55 04-On the Spot
DR15      -1.02 dB   -19.13 dB      6:46 05-The Mummy Club
DR15      -0.53 dB   -18.97 dB      8:12 06-Nuclear Suite
DR15      -1.19 dB   -19.42 dB      5:27 07-Fatt Blatt
--------------------------------------------------------------------------------

Number of tracks:  7
Official DR value: DR15

Samplerate:        96000 Hz
Channels:          2
Bits per sample:   24
Bitrate:           2821 kbps
Codec:             FLAC
================================================================================
Приватный:
Нет (DHT включён)
Размер:
892.58 Мб (935,939,845 байт) » файлов: 11
Участники:
0 раздают, 1 качают (1 участников всего)
Внешние участники:
7 раздают, 2 качают (9 участников всего) [ Обновить ]
18:31
15
Нет комментариев. Ваш будет первым!