Поиск

2016 Alfredo Rodriguez - Tocororo {Mack Avenue} [24-44.1]

2016 Alfredo Rodriguez - Tocororo {Mack Avenue} [24-44.1]
Треклист:

01 Chan Chan (2:09)
02 Yemayá (Featuring – Ibeyi) (3:42)
03 Raíces (Roots) (Featuring – Richard Bona) (4:28)
04 Gitanerías (Featuring – Antonio Lizana) (3:58)
05 Tocororo (Featuring – Ganavya) (5:03)
06 Venga La Esperanza (Featuring – Ibrahim Maalouf) (4:24)
07 Ay, Mamá Inés (Featuring – Richard Bona) (3:14)
08 Sabanas Blancas (Featuring – Ibeyi) (4:06)
09 Jesu, Joy Of Man's Desiring (3:14)
10 Kaleidoscope (Featuring – Ganavya, Ibrahim Maalouf) (3:05)
11 Adiós Nonino (4:08)
12 Meteorite (3:23)
13 Ay, Mamá Inés (Remix) (Featuring – Richard Bona) (2:39)

Доп. инфо:

Формат записи/Источник записи: [TR24][OF]
Наличие водяных знаков: Нет
Год издания/переиздания диска: 2016
Жанр: piano jazz, world fusion, contemporary, latin, post-bop
Издатель (лейбл): Mack Avenue Records
Продолжительность: 00:47:34
Наличие сканов в содержимом раздачи: front+back
Источник (релизер): qobuz

Контейнер: FLAC (*.flac)
Тип рипа: tracks
Разрядность: 24/44,1
Формат: PCM
Количество каналов: 2.0

Лог проверки качества
foobar2000 1.1.15 / Dynamic Range Meter 1.1.1
log date: 2019-09-23 22:58:14

--------------------------------------------------------------------------------
Analyzed: Alfredo Rodriguez / Tocororo
--------------------------------------------------------------------------------

DR         Peak         RMS     Duration Track
--------------------------------------------------------------------------------
DR10      -0.50 dB   -15.58 dB      2:09 01-Chan Chan
DR8       -0.50 dB   -11.63 dB      3:42 02-Yemaya (feat. Ibeyi)
DR8       -0.50 dB   -12.05 dB      4:28 03-Raices (Roots) [feat. Richard Bona]
DR12      -0.50 dB   -16.21 dB      3:58 04-Gitanerías (feat. Antonio Lizana)
DR9       -0.50 dB   -13.49 dB      5:03 05-Tocororo (feat. Ganavya)
DR12      -0.50 dB   -15.95 dB      4:24 06-Venga la Esperanza (feat. Ibrahim Maalouf)
DR12      -0.50 dB   -14.34 dB      3:14 07-Ay, Mamá Inés (feat. Richard Bona)
DR10      -0.50 dB   -13.51 dB      4:06 08-Sabanas Blancas (feat. Ibeyi)
DR10      -0.50 dB   -13.38 dB      3:14 09-Jesu, Joy of Man's Desiring
DR10      -0.50 dB   -13.19 dB      3:05 10-Kaleidoscope (feat. Ibrahim Maalouf & Ganavya)
DR12      -0.50 dB   -15.27 dB      4:08 11-Adiós Nonino
DR9       -0.50 dB   -12.54 dB      3:23 12-Meteorite
DR9       -0.50 dB   -11.76 dB      2:39 13-Ay, Mamá Inés (Remix)
--------------------------------------------------------------------------------

Number of tracks:  13
Official DR value: DR10

Samplerate:        44100 Hz
Channels:          2
Bits per sample:   24
Bitrate:           1431 kbps
Codec:             FLAC
================================================================================
Приватный:
Нет (DHT включён)
Размер:
488.23 Мб (511,945,354 байт) » файлов: 18
Участники:
1 раздают, 0 качают (1 участников всего)
Внешние участники:
16 раздают, 5 качают (21 участников всего) [ Обновить ]
Скорость:
0/c 2.19 Кб/c
Есть вопросы - пишите личное сообщение пользователю M0p94ok.
10:05
13
Нет комментариев. Ваш будет первым!