Поиск

2017 Llorca - The Garden {Must Have Jazz} [24-44.1]

2017 Llorca - The Garden {Must Have Jazz} [24-44.1]
Стили:
Носитель:
WEB
Формат:
PCM
Тип рипа:
tracks
Контейнер:
FLAC (*.flac)
Количество каналов:
2.0
Разрядность/ЧД:
24/44,1
Формат записи/Источник записи:
[TR24][OF]
Время звучания:
00:43:17
Наличие сканов:
только обложка
Наличие водяных знаков:
нет
Страна-производитель диска (релиза):
France
Релизёр (источник):
M0p94ok
Треклист:

01. The Garden (Feat. Michael Barthelemy) (04:10)
02. You (Feat. Frank H. Carter III) (02:46)
03. Waiting (04:35)
04. Make Your Own Choice (Feat. Mawogany Wood) (04:03)
05. All Right (Feat. Georg Levin) (05:15)
06. Rather Be Lonely (Feat. Laetitia Dana) (05:02)
07. Wonderwhy (Feat. Sapele) (04:13)
08. All We Ever Have Is Now (Feat. Stefan Frank) (04:30)
09. Addiction Days (Feat. Halley Hiatt) (04:26)
10. Trigger Happy (Feat. Stefan Frank) (04:16)

Лог проверки качества
foobar2000 1.4.3 / Dynamic Range Meter 1.1.1
log date: 2019-11-07 16:01:45

--------------------------------------------------------------------------------
Analyzed: Llorca / The Garden
--------------------------------------------------------------------------------

DR         Peak         RMS     Duration Track
--------------------------------------------------------------------------------
DR8       -0.60 dB   -10.60 dB      4:10 01-The Garden feat Michael Barthelemy
DR8       -0.60 dB    -9.39 dB      2:46 02-You feat Frank H Carter III
DR8       -0.60 dB   -10.26 dB      4:35 03-Waiting
DR8       -0.60 dB   -10.16 dB      4:03 04-Make Your Own Choice feat Mawogany Wood
DR8       -0.60 dB   -11.03 dB      5:15 05-All Right feat Georg Levin
DR8       -0.60 dB   -10.24 dB      5:02 06-Rather Be Lonely feat Laetitia Dana
DR8       -0.60 dB   -10.20 dB      4:13 07-Wonderwhy feat Sapele
DR7       -0.60 dB    -8.90 dB      4:30 08-All We Ever Have Is Now feat Stefan Frank
DR9       -0.60 dB   -11.26 dB      4:26 09-Addiction Days feat Halley Hiatt
DR7       -0.60 dB    -8.80 dB      4:16 10-Trigger Happy feat Stefan Frank
--------------------------------------------------------------------------------

Number of tracks:  10
Official DR value: DR8

Samplerate:        44100 Hz
Channels:          2
Bits per sample:   24
Bitrate:           1624 kbps
Codec:             FLAC
================================================================================
Приватный:
Нет (DHT включён)
Размер:
505.51 Мб (530,068,193 байт) » файлов: 12
Участники:
0 раздают, 0 качают (0 участников всего)
Внешние участники:
--- [ Обновить ]
17:25
10
Нет комментариев. Ваш будет первым!