Поиск

1958 Wilbur Harden (ft. John Coltrane) - Tanganyika Strut (2019) {RevOla} [24-44.1]

1958 Wilbur Harden (ft. John Coltrane) - Tanganyika Strut (2019) {RevOla} [24-44.1]
Стили:
Треклист:

01 - Tanganyika Strut (Curtis Fuller) – 9:57
02 - B.J. (Wilbur Harden) – 4:32
03 - Anedac (Wilbur Harden) – 5:12
04 - Once in a While (Michael Edwards (m) - Bud Green (w)) – 9:28

Доп. инфо:

Формат записи/Источник записи: [TR24][OF]
Издание: Remastered
Год издания/переиздания диска: 1958/2019
Издатель (лейбл): RevOla
Продолжительность: 00:29:04
Наличие сканов в содержимом раздачи: Нет

Контейнер: FLAC (*.flac)
Тип рипа: tracks
Разрядность: 24/44,1
Количество каналов: 2.0

Источник (релизер): Qobuz

Лог проверки качества
foobar2000 1.3.16 / Dynamic Range Meter 1.1.1
log date: 2019-05-13 18:42:55

--------------------------------------------------------------------------------
Analyzed: Wilbur Harden / Tanganyika Strut
--------------------------------------------------------------------------------

DR         Peak         RMS     Duration Track
--------------------------------------------------------------------------------
DR14      -2.55 dB   -20.24 dB      9:57 01-Tanganyika Strut
DR13      -2.53 dB   -18.61 dB      4:33 02-B.J.
DR12      -2.09 dB   -18.29 dB      5:12 03-Anedac
DR13      -3.36 dB   -20.42 dB      9:22 04-Once in a While
--------------------------------------------------------------------------------

Number of tracks:  4
Official DR value: DR13

Samplerate:        44100 Hz
Channels:          2
Bits per sample:   24
Bitrate:           1397 kbps
Codec:             FLAC
================================================================================
Приватный:
Нет (DHT включён)
Размер:
315.95 Мб (331,300,477 байт) » файлов: 8
Участники:
0 раздают, 0 качают (0 участников всего)
Внешние участники:
10 раздают, 3 качают (13 участников всего) [ Обновить ]
21:31
6
Нет комментариев. Ваш будет первым!