Поиск

2017 Dictaphone - APR 70 {Denovali DN288} [24-44.1]

2017 Dictaphone - APR 70 {Denovali DN288} [24-44.1]

Дата издания диска:
24 ноября 2017
Номер по каталогу:
Denovali DN288
Носитель:
WEB
Формат:
PCM
Тип рипа:
tracks
Контейнер:
FLAC (*.flac)
Количество каналов:
2.0
Разрядность/ЧД:
24/44,1
Формат записи/Источник записи:
[TR24][OF]
Время звучания:
00:40:47
Наличие сканов:
только обложка
Наличие водяных знаков:
нет
Страна-производитель диска (релиза):
Germany
Релизёр (источник):
M0p94ok
Треклист:

1. Opening Night 04:49    
2. Lofi Opium 04:28    
3. 105.4 04:27    
4. Stanko 06:54    
5. Mono16 03:56    
6. Seance 05:02    
7. Mado 04:09    
8. Sanatorium Pod Klepsydra 04:13    
9. La Chute 02:49

Лог проверки качества
foobar2000 1.4.3 / Dynamic Range Meter 1.1.1
log date: 2019-11-06 12:51:13

--------------------------------------------------------------------------------
Analyzed: Dictaphone / APR 70
--------------------------------------------------------------------------------

DR         Peak         RMS     Duration Track
--------------------------------------------------------------------------------
DR8       -0.26 dB   -10.95 dB      4:50 01-Opening Night
DR10      -0.26 dB   -12.74 dB      4:29 02-Lofi Opium
DR9       -0.26 dB   -12.07 dB      4:28 03-105.4
DR11      -0.26 dB   -14.69 dB      6:55 04-Stanko
DR10      -0.26 dB   -13.85 dB      3:56 05-Mono16
DR8       -0.26 dB   -12.15 dB      5:03 06-Seance
DR7       -0.26 dB    -9.02 dB      4:10 07-Mado
DR9       -0.26 dB   -10.98 dB      4:14 08-Sanatorium Pod Klepsydra
DR8       -0.26 dB   -11.34 dB      2:50 09-La Chute
--------------------------------------------------------------------------------

Number of tracks:  9
Official DR value: DR9

Samplerate:        44100 Hz
Channels:          2
Bits per sample:   24
Bitrate:           1206 kbps
Codec:             FLAC
================================================================================
Приватный:
Нет (DHT включён)
Размер:
369.46 Мб (387,402,488 байт) » файлов: 11
Участники:
1 раздают, 0 качают (1 участников всего)
Внешние участники:
--- [ Обновить ]
14:07
8
Нет комментариев. Ваш будет первым!