Поиск

2019 Las Hermanas Caronni - Santa Plástica {Les Grands Fleuves} [24-48]

2019 Las Hermanas Caronni - Santa Plástica {Les Grands Fleuves} [24-48]
Треклист:

01 Santa Plastica 03:07
02 Coplita para mi mama 01:40
03 Breathe 02:45
04 One Way 04:53
05 Tingo 04:52
06 El cielo 04:11
07 Buena de mas 03:41
08 Coucou 03:41
09 Partir 04:31
10 Tôle 03:39
11 Lestey 02:57

Доп. инфо:

Формат записи/Источник записи: [TR24][OF]
Наличие водяных знаков: Нет
Год издания/переиздания диска: 2019
Издатель (лейбл): Les Grands Fleuves / L'Autre Distribution
Продолжительность: 00:39:57
Наличие сканов в содержимом раздачи: Только обложка альбома
Источник (релизер): qobuz

Контейнер: FLAC (*.flac)
Тип рипа: tracks
Разрядность: 24/48
Формат: PCM
Количество каналов: 2.0

Лог проверки качества
foobar2000 1.1.15 / Dynamic Range Meter 1.1.1
log date: 2019-12-02 11:58:15

--------------------------------------------------------------------------------
Analyzed: Las Hermanas Caronni, Diana Baroni / Santa Plastica (1)
          Las Hermanas Caronni, Erik Truffaz / Santa Plastica (2-3)
          Las Hermanas Caronni, Minino Garay, Moussa Koita / Santa Plastica (4)
          Las Hermanas Caronni, Piers Faccini / Santa Plastica (5-6)
          Las Hermanas Caronni / Santa Plastica (7-11)
--------------------------------------------------------------------------------

DR         Peak         RMS     Duration Track
--------------------------------------------------------------------------------
DR10      -0.10 dB   -13.12 dB      4:12 06-El cielo
DR10      -0.10 dB   -12.57 dB      4:54 04-One Way
DR10      -0.10 dB   -12.81 dB      4:53 05-Tingo
DR9       -0.02 dB   -11.45 dB      3:08 01-Santa Plastica
DR11      -0.12 dB   -12.64 dB      2:45 03-Breathe
DR12      -0.06 dB   -15.52 dB      3:42 07-Buena de mas
DR17      -0.10 dB   -18.28 dB      1:40 02-Coplita para mi mama
DR10      -0.10 dB   -12.54 dB      3:41 08-Coucou
DR9       -0.10 dB   -11.81 dB      4:32 09-Partir
DR11      -0.10 dB   -13.34 dB      3:40 10-Tôle
DR11      -0.10 dB   -12.90 dB      2:58 11-Lestey
--------------------------------------------------------------------------------

Number of tracks:  11
Official DR value: DR11

Samplerate:        48000 Hz
Channels:          2
Bits per sample:   24
Bitrate:           1627 kbps
Codec:             FLAC
================================================================================
Приватный:
Нет (DHT включён)
Размер:
427.01 Мб (447,749,528 байт) » файлов: 14
Участники:
0 раздают, 2 качают (2 участников всего)
Внешние участники:
9 раздают, 3 качают (12 участников всего) [ Обновить ]
No seeders - write a personal message to user M0p94ok. Нет сидеров - пишите личное сообщение пользователю M0p94ok.
13:41
39
Нет комментариев. Ваш будет первым!