Поиск

2015 Las Hermanas Caronni - Navega Mundos {Les Grands Fleuves} [24-48]

2015 Las Hermanas Caronni - Navega Mundos {Les Grands Fleuves} [24-48]
Треклист:

01 Agua De Rio
02 La Melodie Des Choses (Lyrics By – Rainer Maria Rilke)
03 Maria
04 La Chica Del 17
05 Macondo
06 Amanece
07 Spanish Caravan (Songwriter – The Doors)
08 El Espanol
09 Turchinsky Conzonetta
10 Cansino
11 Preludio Y Habanera
12 Ya Me Voy

Доп. инфо:

Формат записи/Источник записи: [TR24][OF]
Наличие водяных знаков: Нет
Год издания/переиздания диска: 2015
Издатель (лейбл): Les Grands Fleuves / L'Autre Distribution
Продолжительность: 00:42:44
Наличие сканов в содержимом раздачи: Буклет PDF
Источник (релизер): qobuz

Контейнер: FLAC (*.flac)
Тип рипа: tracks
Разрядность: 24/48
Формат: PCM
Количество каналов: 2.0

Лог проверки качества
foobar2000 1.1.15 / Dynamic Range Meter 1.1.1
log date: 2019-12-02 11:57:42

--------------------------------------------------------------------------------
Analyzed: Las Hermanas Caronni, Ceiba / Navega Mundos (1)
          Las Hermanas Caronni, Raul Barboza / Navega Mundos (2-3)
          Las Hermanas Caronni / Navega Mundos (4-12)
--------------------------------------------------------------------------------

DR         Peak         RMS     Duration Track
--------------------------------------------------------------------------------
DR9       -0.10 dB   -12.27 dB      4:03 03-María (feat. Ceiba)
DR9       -0.10 dB   -10.72 dB      2:39 04-La Chica del 17 (feat. Raúl Barboza)
DR9       -0.10 dB   -10.01 dB      2:22 12-Ya me voy (feat. Raúl Barboza)
DR14      -0.10 dB   -16.46 dB      2:22 01-Agua de río
DR8       -0.10 dB   -11.01 dB      4:30 02-La mélodie des choses
DR8       -0.10 dB   -11.18 dB      4:02 05-Macondo
DR13      -0.10 dB   -15.52 dB      1:32 06-Amanece
DR8       -0.10 dB   -11.16 dB      4:07 07-Spanich Caravan
DR8       -0.10 dB   -10.14 dB      3:36 08-El Español
DR7       -0.10 dB    -9.92 dB      3:03 09-Turchinsky canzonetta
DR10      -0.10 dB   -13.32 dB      4:50 10-Cansino
DR10      -0.10 dB   -12.95 dB      5:40 11-Preludio y habanera
--------------------------------------------------------------------------------

Number of tracks:  12
Official DR value: DR9

Samplerate:        48000 Hz
Channels:          2
Bits per sample:   24
Bitrate:           1437 kbps
Codec:             FLAC
================================================================================
Приватный:
Нет (DHT включён)
Размер:
448.75 Мб (470,543,905 байт) » файлов: 17
Участники:
0 раздают, 1 качают (1 участников всего)
Внешние участники:
5 раздают, 2 качают (7 участников всего) [ Обновить ]
No seeders - write a personal message to user M0p94ok. Нет сидеров - пишите личное сообщение пользователю M0p94ok.
14:45
44
Нет комментариев. Ваш будет первым!