Вы используете незарегистрированную версию компонента "Вкладки"!

Поиск

2013 Three Fall - Realize! {ACT Music ACT 9672-2} [24-44,1]

2013 Three Fall - Realize! {ACT Music ACT 9672-2} [24-44,1]
Стили:
Дата записи диска:
27-28 февраля 2013
Место записи:
Realistic Sound Studio Munich
Дата издания диска:
28 июня 2013
Издатель (лейбл):
Номер по каталогу:
ACT 9672-2
Носитель:
WEB
Формат:
PCM
Тип рипа:
tracks+.cue
Контейнер:
FLAC (*.flac)
Количество каналов:
2.0
Разрядность/ЧД:
24/44,1
Время звучания:
00:53:51
Наличие сканов:
да
Страна-производитель диска (релиза):
Germany
Релизёр (источник):
M0p94ok
Лог проверки качества
foobar2000 1.3.16 / Dynamic Range Meter 1.1.1
log date: 2019-01-03 00:48:11

--------------------------------------------------------------------------------
Analyzed: Three Fall / Realize!
--------------------------------------------------------------------------------

DR         Peak         RMS     Duration Track
--------------------------------------------------------------------------------
DR8       -0.19 dB   -11.66 dB      3:51 01-Nevertheless
DR7       -0.19 dB    -8.74 dB      4:50 02-Realize!
DR6       -0.19 dB    -9.11 dB      6:09 03-Bata
DR9       -0.19 dB   -12.71 dB      3:43 04-Chai
DR7       -0.19 dB    -9.62 dB      4:10 05-Endless
DR7       -0.19 dB    -8.96 dB      6:14 06-Killing in the Name
DR8       -0.19 dB   -12.75 dB      6:17 07-Stein
DR7       -0.19 dB    -9.98 dB      0:45 08-Wusel
DR6       -0.19 dB    -8.18 dB      2:49 09-Drunken Master
DR7       -0.19 dB    -8.60 dB      3:59 10-Chapa Chapa Maputo
DR10      -0.19 dB   -12.34 dB      2:49 11-Lithium
DR6       -0.19 dB    -8.80 dB      4:20 12-Bones and Steaks
DR6       -0.19 dB   -10.48 dB      4:00 13-The Scientist
--------------------------------------------------------------------------------

Number of tracks:  13
Official DR value: DR7

Samplerate:        44100 Hz
Channels:          2
Bits per sample:   24
Bitrate:           1375 kbps
Codec:             FLAC
================================================================================
Any questions - support@pro-jazz.com. Есть вопросы - support@pro-jazz.com
09:36
253
Нет комментариев. Ваш будет первым!