Поиск

2019 Johannes Haage, Drift - Darwin's Blues {Shoebill} [24-44,1]

2019 Johannes Haage, Drift - Darwin's Blues {Shoebill} [24-44,1]
Дата записи диска:
июль 2017 - январь 2018
Место записи:
Zentrifuge, Berlin, Germany
Дата издания диска:
25 января 2019
Носитель:
WEB
Формат:
PCM
Тип рипа:
tracks+.cue
Контейнер:
FLAC (*.flac)
Количество каналов:
2.0
Разрядность/ЧД:
24/44,1
Битрейт аудио:
lossless
Время звучания:
00:23:43
Наличие сканов:
web
Страна-производитель диска (релиза):
Germany
Релизёр (источник):
M0p94ok
Лог проверки качества
foobar2000 1.5.5 / Dynamic Range Meter 1.1.1
log date: 2020-09-23 20:49:28

--------------------------------------------------------------------------------
Analyzed: Johannes Haage, Drift / Darwin's Blues
--------------------------------------------------------------------------------

DR         Peak         RMS     Duration Track
--------------------------------------------------------------------------------
DR11      -0.48 dB   -15.62 dB      5:14 01-Darwin's Blues
DR9       -1.44 dB   -13.15 dB      0:30 02-Love Strangers
DR11      -0.48 dB   -15.95 dB      0:30 03-A Free Range
DR11      -0.48 dB   -17.02 dB      6:22 04-Love in the Crazy
DR11      -6.11 dB   -21.70 dB      0:30 05-Til Stranden
DR14      -7.38 dB   -25.17 dB      0:30 06-Love in the Crazy (Reprise) (Reprise)
DR12      -0.48 dB   -16.20 dB      5:51 07-Tectonic
DR12      -6.02 dB   -20.93 dB      0:30 08-Friday
DR10      -5.29 dB   -18.79 dB      0:30 09-Piombino
DR10      -0.48 dB   -12.38 dB      3:21 10-Spreenhagen
--------------------------------------------------------------------------------

Number of tracks:  10
Official DR value: DR11

Samplerate:        44100 Hz
Channels:          2
Bits per sample:   24
Bitrate:           1458 kbps
Codec:             FLAC
================================================================================
No seeders - write personal message to M0p94ok. Any questions - support@pro-jazz.com.
Нет сидеров - пишите в личку M0p94ok. Есть вопросы - support@pro-jazz.com
21:07
186
Нет комментариев. Ваш будет первым!