Вы используете незарегистрированную версию компонента "Вкладки"!

Поиск

2020 Jacob Collier - Djesse Vol. 3 {Decca (UMO)} [24-96]

2020 Jacob Collier - Djesse Vol. 3 {Decca (UMO)} [24-96]
Издатель (лейбл):
Битрейт аудио:
lossless
Доп. инфо:

Формат записи/Источник записи: [TR24][OF]
Наличие водяных знаков: Нет
Год издания/переиздания диска: 2020
Продолжительность: 00:41:05
Наличие сканов в содержимом раздачи: Только обложка альбома
Источник (релизер): highresaudio

Контейнер: FLAC (*.flac)
Тип рипа: tracks
Разрядность: 24/96
Формат: PCM
Количество каналов: 2.0

Доп. информация: http://jacobcollier.com/

Лог проверки качества
foobar2000 1.1.15 / Dynamic Range Meter 1.1.1
log date: 2020-08-14 18:23:57

--------------------------------------------------------------------------------
Analyzed: Jacob Collier / Djesse Vol. 3
--------------------------------------------------------------------------------

DR         Peak         RMS     Duration Track
--------------------------------------------------------------------------------
DR8       -0.15 dB   -11.57 dB      0:52 01-CLARITY
DR5       -0.15 dB    -7.82 dB      2:48 02-Count The People
DR6       -0.15 dB    -7.82 dB      4:09 03-In My Bones
DR5       -0.10 dB    -7.89 dB      4:16 04-Time Alone With You
DR4       -0.10 dB    -7.22 dB      4:05 05-All I Need (with Mahalia & Ty Dolla $ign)
DR7       -0.20 dB   -10.46 dB      3:53 06-In Too Deep
DR7       -0.20 dB    -8.18 dB      2:02 07-Butterflies
DR6       -0.15 dB    -7.71 dB      4:17 08-Sleeping On My Dreams
DR7       -0.15 dB    -9.37 dB      4:26 09-Running Outta Love
DR6       -0.20 dB    -9.18 dB      2:05 10-Light It Up On Me
DR6       -0.15 dB    -9.36 dB      5:00 11-He Won't Hold You
DR8       -0.15 dB   -12.29 dB      3:12 12-To Sleep
--------------------------------------------------------------------------------

Number of tracks:  12
Official DR value: DR6

Samplerate:        96000 Hz
Channels:          2
Bits per sample:   24
Bitrate:           3108 kbps
Codec:             FLAC
================================================================================
Any questions - support@pro-jazz.com. Есть вопросы - support@pro-jazz.com
15:59
313
Нет комментариев. Ваш будет первым!