Поиск

2019 Jazzrausch Bigband - Still Still! Still! {ACT Music} [24-48]

2019 Jazzrausch Bigband - Still Still! Still! {ACT Music} [24-48]
Издатель (лейбл):
Номер по каталогу:
ACT 9894-2

Треклист:

01. Leise rieselt der Schnee  05:23
02. Still! Still! Still!  03:52
03. Engel auf den Feldern singen  04:34
04. O du Fröhliche  03:59
05. Kling Glöckchen  04:49
06. Macht hoch die Tür, die Tor macht weit  07:46
07. Schneeflöckchen, Weißröckchen  01:36
08. Stille Nacht  02:39
09. Morgen, Kinder, wird's was geben  04:25
10. Kommet, ihr Hirten  04:48
11. Fröhliche Weihnacht überall  02:54
12. Süßer die Glocken nie klingen  05:48

Доп. инфо:

Формат записи/Источник записи: [TR24][OF]
Наличие водяных знаков: Нет
Год издания/переиздания диска: 2019
Продолжительность: 52:38
Наличие сканов в содержимом раздачи: Буклет PDF

Контейнер: FLAC (*.flac)
Тип рипа: tracks
Разрядность: 24/48
Формат: PCM
Количество каналов: 2.0

Источник: highresaudio.com

Лог проверки качества
foobar2000 1.3.9 / Dynamic Range Meter 1.1.1
log date: 2020-01-30 14:50:29

--------------------------------------------------------------------------------
Analyzed: Jazzrausch Bigband / Still Still! Still!
--------------------------------------------------------------------------------

DR         Peak         RMS     Duration Track
--------------------------------------------------------------------------------
DR11      -0.78 dB   -15.11 dB      5:24 01-Leise rieselt der Schnee
DR11      -0.78 dB   -14.33 dB      3:53 02-Still! Still! Still!
DR11      -0.78 dB   -13.25 dB      4:34 03-Engel auf den Feldern singen
DR12      -2.21 dB   -20.28 dB      3:59 04-O du Fröhliche
DR11      -0.78 dB   -13.71 dB      4:50 05-Kling Glöckchen
DR13      -1.40 dB   -18.51 dB      7:46 06-Macht hoch die Tür, die Tor macht weit
DR11      -0.78 dB   -14.81 dB      1:36 07-Schneeflöckchen, Weißröckchen
DR14      -0.78 dB   -19.19 dB      2:40 08-Stille Nacht
DR10      -0.78 dB   -12.99 dB      4:25 09-Morgen, Kinder, wird's was geben
DR11      -0.78 dB   -15.93 dB      4:49 10-Kommet, ihr Hirten
DR10      -0.78 dB   -13.20 dB      2:54 11-Fröhliche Weihnacht überall
DR11      -0.78 dB   -15.33 dB      5:48 12-Süßer die Glocken nie klingen
--------------------------------------------------------------------------------

Number of tracks:  12
Official DR value: DR11

Samplerate:        48000 Hz
Channels:          2
Bits per sample:   24
Bitrate:           1538 kbps
Codec:             FLAC
================================================================================
Приватный:
Нет (DHT включён)
Размер:
605.83 Мб (635,258,785 байт) » файлов: 17
Участники:
0 раздают, 0 качают (0 участников всего)
Внешние участники:
9 раздают, 3 качают (12 участников всего) [ Обновить ]
Есть вопросы - пишите личное сообщение пользователю M0p94ok.
14:54
15
Нет комментариев. Ваш будет первым!