Поиск

2016 Knut Reiersrud - Jazz at Berlin Philharmonic VI (Celtic Roots) {ACT 9836-2} [24-48]

2016 Knut Reiersrud - Jazz at Berlin Philharmonic VI (Celtic Roots) {ACT 9836-2} [24-48]
Дата записи диска:
8 марта 2016
Место записи:
Berliner Philharmonie (KMS)
Издатель (лейбл):
Номер по каталогу:
ACT 9836-2
Носитель:
WEB
Формат:
PCM
Тип рипа:
tracks
Контейнер:
FLAC (*.flac)
Количество каналов:
2.0
Разрядность/ЧД:
24/48
Формат записи/Источник записи:
[TR24][OF]
Время звучания:
01:10:01
Наличие сканов:
буклет pdf
Наличие водяных знаков:
нет
Страна-производитель диска (релиза):
Germany
Релизёр (источник):
M0p94ok

Треклист:

01. Opening (Live)  02:27
02. Mole in the Ground (Live)  04:30
03. Hymn and Sword Dances (Live)  05:16
04. Willie Murray's Reel (Live)  05:57
05. Lament for the Children - Den Forste Gang (Live)  10:05
06. Buck Ride (Live)  05:02
07. In the Pines (Live)  04:49
08. On the Big Sea (Live)  06:46
09. Shetland Medley (Live)  04:59
10. Two Sisters (Live)  08:22
11. St. James Infirmary (Live)  05:56
12. Right on Time (Live)  05:52

Лог проверки качества
foobar2000 1.3.16 / Dynamic Range Meter 1.1.1
log date: 2018-12-10 20:30:04

--------------------------------------------------------------------------------
Analyzed: Knut Reiersrud, Ale Möller, Eric Bibb, Aly Bain, Fraser Fifield, Tuva Syvertsen & Olle Linder / Jazz at Berlin Philharmonic VI (Celtic Roots)
--------------------------------------------------------------------------------

DR         Peak         RMS     Duration Track
--------------------------------------------------------------------------------
DR9       -0.72 dB   -13.15 dB      2:28 01-Opening (Live)
DR9       -0.72 dB   -12.57 dB      4:31 02-Mole in the Ground (Live)
DR8       -0.72 dB   -13.30 dB      5:17 03-Hymn and Sword Dances (Live)
DR8       -0.72 dB   -11.47 dB      5:58 04-Willie Murray's Reel (Live)
DR8       -0.72 dB   -12.80 dB     10:06 05-Lament for the Children-Den Forste Gang (Live)
DR12      -0.72 dB   -16.67 dB      5:03 06-Buck Ride (Live)
DR11      -0.72 dB   -14.40 dB      4:49 07-In the Pines (Live)
DR8       -0.72 dB   -12.01 dB      6:46 08-On the Big Sea (Live)
DR10      -0.72 dB   -14.55 dB      5:00 09-Shetland Medley (Live)
DR7       -0.72 dB   -11.41 dB      8:22 10-Two Sisters (Live)
DR7       -0.72 dB   -10.28 dB      5:57 11-St. James Infirmary (Live)
DR6       -0.72 dB    -8.62 dB      5:53 12-Right on Time (Live)
--------------------------------------------------------------------------------

Number of tracks:  12
Official DR value: DR9

Samplerate:        48000 Hz
Channels:          2
Bits per sample:   24
Bitrate:           1822 kbps
Codec:             FLAC
================================================================================
Приватный:
Нет (DHT включён)
Размер:
839.12 Мб (879,877,543 байт) » файлов: 15
Участники:
2 раздают, 0 качают (2 участников всего)
Внешние участники:
--- [ Обновить ]
Есть вопросы - пишите личное сообщение пользователю M0p94ok.
13:26
15
Нет комментариев. Ваш будет первым!