Поиск

2019 Jazzrausch Bigband - Dancing Wittgenstein {ACT Music} [24-44,1]

2019 Jazzrausch Bigband - Dancing Wittgenstein {ACT Music} [24-44,1]
Стили:
Издатель (лейбл):
Треклист:

01. Dancing Wittgenstein (10:10)
02. Le Système Planétaire (5:20)
03. I Want To Be A Banana (9:00)
04. Continuous Dirichlet (8:40)
05. Subzero (5:33)
06. Native Riddim (5:32)
07. I Want To Be A Banana (Slatec Remix) (3:58)
08. Continuous Dirichlet (Radio Edit) (3:38)
09. Moebius Strip (Radio Edit) (3:48)

Доп. инфо:

Формат записи/Источник записи: [TR24][OF]
Наличие водяных знаков: Нет
Год издания/переиздания диска: 2019
Продолжительность: 55:40
Наличие сканов в содержимом раздачи: Буклет PDF

Контейнер: FLAC (*.flac)
Тип рипа: tracks
Разрядность: 24/44,1
Формат: PCM
Количество каналов: 2.0

Источник: highresaudio.com

Лог проверки качества
foobar2000 1.3.9 / Dynamic Range Meter 1.1.1
log date: 2020-01-30 14:26:42

--------------------------------------------------------------------------------
Analyzed: Jazzrausch Bigband / Dancing Wittgenstein
--------------------------------------------------------------------------------

DR         Peak         RMS     Duration Track
--------------------------------------------------------------------------------
DR6       -1.00 dB    -8.70 dB     10:10 01-Dancing Wittgenstein
DR8       -1.00 dB    -9.50 dB      5:20 02-Le Système Planétaire
DR7       -1.00 dB    -9.16 dB      9:00 03-I Want To Be A Banana
DR8       -1.00 dB   -10.23 dB      8:40 04-Continuous Dirichlet
DR6       -1.00 dB    -9.17 dB      5:33 05-Subzero
DR6       -1.00 dB    -9.58 dB      5:32 06-Native Riddim
DR4       -1.00 dB    -7.61 dB      3:58 07-I Want To Be A Banana (Slatec Remix)
DR7       -1.00 dB    -9.68 dB      3:38 08-Continuous Dirichlet (Radio Edit)
DR6       -1.00 dB    -8.23 dB      3:48 09-Moebius Strip (Radio Edit)
--------------------------------------------------------------------------------

Number of tracks:  9
Official DR value: DR7

Samplerate:        44100 Hz
Channels:          2
Bits per sample:   24
Bitrate:           1661 kbps
Codec:             FLAC
================================================================================
Приватный:
Нет (DHT включён)
Размер:
651.93 Мб (683,602,500 байт) » файлов: 14
Участники:
11 раздают, 0 качают (11 участников всего)
Внешние участники:
9 раздают, 3 качают (12 участников всего) [ Обновить ]
Есть вопросы - пишите личное сообщение пользователю M0p94ok.
11:03
16
Нет комментариев. Ваш будет первым!