Поиск

2018 Espen Berg Trio - Bølge {Odin} [24-96]

2018 Espen Berg Trio - Bølge {Odin} [24-96]
Дата записи диска:
5-7 апреля 2017
Место записи:
Rainbow Studio, Oslo, Norway
Дата издания диска:
26 августа 2018
Номер по каталогу:
ODINCD9559
Треклист:

01. Hounds of Winter (04:07)
02. Maetrix (04:10)
03. XIII (07:07)
04. Bølge (07:08)
05. Tredje (04:23)
06. Cadae (03:11)
07. For Now (04:43)
08. Bridges (05:27)
09. Skoddefall (05:03)
10. Climbing (04:42)

Доп. инфо:

Формат записи/Источник записи: [TR24][OF]
Наличие водяных знаков: Нет
Год издания/переиздания диска: 2018
Издатель (лейбл): ODIN
Продолжительность: 00:50:05
Наличие сканов в содержимом раздачи: front+back
Источник (релизер): highresaudio

Контейнер: FLAC (*.flac)
Тип рипа: tracks
Разрядность: 24/96
Формат: PCM
Количество каналов: 2.0
Доп. информация: https://espenberg.no

Лог проверки качества
foobar2000 1.1.15 / Dynamic Range Meter 1.1.1
log date: 2020-01-30 08:06:53

--------------------------------------------------------------------------------
Analyzed: Espen Berg Trio / Bølge
--------------------------------------------------------------------------------

DR         Peak         RMS     Duration Track
--------------------------------------------------------------------------------
DR10      -0.70 dB   -14.29 dB      4:08 01-Hounds of Winter
DR10      -0.70 dB   -12.88 dB      4:10 02-Maetrix
DR12      -0.70 dB   -15.75 dB      7:08 03-XIII
DR11      -1.70 dB   -16.17 dB      7:09 04-Bølge
DR9       -0.70 dB   -12.76 dB      4:23 05-Tredje
DR9       -0.70 dB   -11.34 dB      3:11 06-Cadae
DR11      -0.70 dB   -15.21 dB      4:44 07-For Now
DR9       -0.70 dB   -11.73 dB      5:28 08-Bridges
DR9       -0.70 dB   -12.23 dB      5:03 09-Skoddefall
DR9       -0.70 dB   -13.25 dB      4:42 10-Climbing
--------------------------------------------------------------------------------

Number of tracks:  10
Official DR value: DR10

Samplerate:        96000 Hz
Channels:          2
Bits per sample:   24
Bitrate:           2954 kbps
Codec:             FLAC
================================================================================
Приватный:
Нет (DHT включён)
Размер:
1.04 Гб (1,114,302,631 байт) » файлов: 15
Участники:
0 раздают, 0 качают (0 участников всего)
Внешние участники:
10 раздают, 3 качают (13 участников всего) [ Обновить ]
Есть вопросы - пишите личное сообщение пользователю M0p94ok.
19:01
24
Нет комментариев. Ваш будет первым!