Поиск

2016 Jukka Perko, Jarmo Saari, Teemu Viinikainen - Invisible Man {ACT Music 9819-2} [24-88,2]

2016 Jukka Perko, Jarmo Saari, Teemu Viinikainen - Invisible Man {ACT Music 9819-2} [24-88,2]
Дата записи диска:
19-20 ноября 2015
Место записи:
Hansa Studios, Berlin
Дата издания диска:
27 мая 2016
Издатель (лейбл):
Номер по каталогу:
ACT 9819-2
Носитель:
WEB
Формат:
PCM
Тип рипа:
tracks
Контейнер:
FLAC (*.flac)
Количество каналов:
2.0
Разрядность/ЧД:
24/88,2
Формат записи/Источник записи:
[TR24][OF]
Время звучания:
00:51:04
Наличие сканов:
буклет pdf
Наличие водяных знаков:
нет
Страна-производитель диска (релиза):
Germany
Релизёр (источник):
M0p94ok
Треклист:

01. Invisible Man  02:33
02. Like Father Like Son  05:34
03. Tears in Heaven  03:04
04. He Left the Road  05:04
05. Pimento  05:25
06. Sweet Solitude  03:11
07. Nameless Angel  04:07
08. Awakening  04:10
09. Helmi  04:11
10. Open Door  04:18
11. Don't Give Up  04:32
12. Pavane  04:55

Лог проверки качества
foobar2000 1.3.16 / Dynamic Range Meter 1.1.1
log date: 2018-12-11 22:24:26

--------------------------------------------------------------------------------
Analyzed: Jukka Perko, Jarmo Saari, Teemu Viinikainen / Invisible Man
--------------------------------------------------------------------------------

DR         Peak         RMS     Duration Track
--------------------------------------------------------------------------------
DR8       -0.72 dB   -12.16 dB      2:33 01-Invisible Man
DR9       -0.72 dB   -13.49 dB      5:34 02-Like Father Like Son
DR10      -1.04 dB   -15.04 dB      3:05 03-Tears in Heaven
DR10      -0.72 dB   -15.09 dB      5:05 04-He Left the Road
DR10      -0.72 dB   -13.74 dB      5:26 05-Pimento
DR13      -4.06 dB   -21.85 dB      3:11 06-Sweet Solitude
DR10      -0.72 dB   -15.11 dB      4:07 07-Nameless Angel
DR9       -0.72 dB   -13.09 dB      4:10 08-Awakening
DR10      -0.72 dB   -13.68 dB      4:11 09-Helmi
DR8       -0.72 dB   -12.27 dB      4:19 10-Open Door
DR9       -0.72 dB   -12.95 dB      4:32 11-Don't Give Up
DR10      -0.73 dB   -14.60 dB      4:55 12-Pavane
--------------------------------------------------------------------------------

Number of tracks:  12
Official DR value: DR10

Samplerate:        88200 Hz
Channels:          2
Bits per sample:   24
Bitrate:           2585 kbps
Codec:             FLAC
================================================================================
Приватный:
Нет (DHT включён)
Размер:
944.37 Мб (990,245,651 байт) » файлов: 16
Участники:
2 раздают, 0 качают (2 участников всего)
Внешние участники:
--- [ Обновить ]
Есть вопросы - пишите личное сообщение пользователю M0p94ok.
16:32
11
Нет комментариев. Ваш будет первым!