Поиск

2015 Jukka Perko, Iiro Rantala - It Takes Two To Tango {ACT Music 9629-2} [24-96]

2015 Jukka Perko, Iiro Rantala - It Takes Two To Tango {ACT Music 9629-2} [24-96]
Стили:
Дата записи диска:
6-7 ноября 2014
Место записи:
ACT Art Collection Berlin
Дата издания диска:
24 мая 2015
Издатель (лейбл):
Номер по каталогу:
ACT 9629-2
Носитель:
WEB
Формат:
PCM
Тип рипа:
tracks
Контейнер:
FLAC (*.flac)
Количество каналов:
2.0
Разрядность/ЧД:
24/96
Формат записи/Источник записи:
[TR24][OF]
Наличие сканов:
буклет pdf
Наличие водяных знаков:
нет
Страна-производитель диска (релиза):
Germany
Релизёр (источник):
M0p94ok
Треклист:

01. My Sweetheart Is Beautiful ( traditional)  02:02
02. Jealousy ( Gade, Jacob)  04:39
03. For Mama ( Aznavour, Charles)  04:15
04. Therefore I Am Sad ( Kärki, Toivo)  04:23
05. Romance ( Fougstedt, Nils-Eric)  03:20
06. A Blessing ( traditionell)  03:25
07. I Will ( Perko, Jukka)  04:24
08. Stella By Starlight ( Young, Victor)  04:55
09. Love Is So Beautiful ( Kolmanovsky, Eduard )  03:02
10. Good Intentions ( Goodman, Irwin )  03:16
11. Finlandia (solo version) ( Sibelius, Jean)  01:36
12. Finlandia (duo version) ( Sibelius, Jean)  03:45

Лог проверки качества
foobar2000 1.3.16 / Dynamic Range Meter 1.1.1
log date: 2018-12-15 17:21:07

--------------------------------------------------------------------------------
Analyzed: Jukka Perko, Iiro Rantala / It Takes Two to Tango
--------------------------------------------------------------------------------

DR         Peak         RMS     Duration Track
--------------------------------------------------------------------------------
DR10      -0.72 dB   -13.83 dB      2:02 01-My Sweetheart Is Beautiful
DR9       -0.72 dB   -12.44 dB      4:39 02-Jealousy
DR11      -0.72 dB   -15.48 dB      5:02 03-Just Say I Love Her
DR9       -0.72 dB   -12.88 dB      4:16 04-For Mama
DR11      -0.72 dB   -15.31 dB      4:23 05-Therefore I Am Sad
DR10      -0.72 dB   -14.26 dB      3:20 06-Romance
DR12      -0.72 dB   -16.21 dB      3:26 07-A Blessing
DR9       -0.72 dB   -13.83 dB      4:25 08-I Will
DR11      -0.72 dB   -14.73 dB      4:56 09-Stella By Starlight
DR12      -1.58 dB   -18.91 dB      3:03 10-Love Is so Beautiful
DR10      -0.72 dB   -15.21 dB      3:17 11-Good Intentions
DR9       -0.72 dB   -11.63 dB      1:37 12-Finlandia (Piano Solo Version)
DR8       -0.72 dB   -12.97 dB      3:45 13-Finlandia (Duo Version)
--------------------------------------------------------------------------------

Number of tracks:  13
Official DR value: DR10

Samplerate:        96000 Hz
Channels:          2
Bits per sample:   24
Bitrate:           2510 kbps
Codec:             FLAC
================================================================================
Приватный:
Нет (DHT включён)
Размер:
873.69 Мб (916,131,098 байт) » файлов: 16
Участники:
4 раздают, 0 качают (4 участников всего)
Внешние участники:
--- [ Обновить ]
Есть вопросы - пишите личное сообщение пользователю M0p94ok.
15:15
23
Нет комментариев. Ваш будет первым!