Поиск

2015 Steven Bernstein - Brass Bang! {Tŭk Music} [24-88,2]

2015 Steven Bernstein - Brass Bang! {Tŭk Music} [24-88,2]
Стили:
Дата записи диска:
22-25 апреля 2013
Место записи:
ArteSuono Studio, Cavalicco, Udine, Italy
Дата издания диска:
10 марта 2015
Треклист:

01. Italian At La Glance (0:48)
02. Black And Tan Fantasy (5:12)
03. As Tears Go By (8:37)
04. Dissonanze Cognitive (2:33)
05. Beng! (3:07)
06. La Réjouissance (Music for the Royal Fireworks) (2:24)
07. No Potho Reposare (4:35)
08. Zero (7:15)
09. Bing! (0:56)
10. Surgentem Cum Victoria (3:11)
11. Shorty (4:45)
12. Wienerschnitzel (0:42)
13. Manic Depression (2:45)
14. Bung! (1:04)
15. Rockin’ In Rhythm (6:20)
16. Bong! (1:09)
17. Fuga (2:38)
18. Guarda Che Luna (4:15)

Доп. инфо:

Формат записи/Источник записи: [TR24][OF]
Наличие водяных знаков: Нет
Год издания/переиздания диска: 2015
Издатель (лейбл): Tŭk Music
Продолжительность: 01:02:16
Наличие сканов в содержимом раздачи: Буклет PDF

Контейнер: FLAC (*.flac)
Тип рипа: tracks
Разрядность: 24/88,2
Формат: PCM
Количество каналов: 2.0

Источник: qobuz.com

Лог проверки качества
foobar2000 1.3.9 / Dynamic Range Meter 1.1.1
log date: 2020-01-30 13:24:04

--------------------------------------------------------------------------------
Analyzed: Steven Bernstein, Paolo Fresu, Gianluca Petrella, Marcus Rojas / Brass Bang!
--------------------------------------------------------------------------------

DR         Peak         RMS     Duration Track
--------------------------------------------------------------------------------
DR9       -0.30 dB   -12.43 dB      0:48 01-Italian At La Glance
DR11      -0.30 dB   -13.98 dB      5:12 02-Black And Tan Fantasy
DR8       -0.30 dB   -12.24 dB      8:37 03-As Tears Go By
DR12      -2.69 dB   -18.49 dB      2:33 04-Dissonanze Cognitive
DR8       -2.04 dB   -14.12 dB      3:07 05-Beng!
DR10      -0.30 dB   -12.75 dB      2:24 06-La Réjouissance (Music for the Royal Fireworks)
DR9       -0.30 dB   -13.20 dB      4:35 07-No Potho Reposare
DR12      -0.30 dB   -16.13 dB      7:15 08-Zero
DR9       -9.42 dB   -23.55 dB      0:56 09-Bing!
DR10      -0.74 dB   -13.48 dB      3:11 10-Surgentem Cum Victoria
DR12      -0.30 dB   -15.37 dB      4:45 11-Shorty
DR10      -3.92 dB   -19.96 dB      0:42 12-Wienerschnitzel
DR10      -0.30 dB   -12.77 dB      2:45 13-Manic Depression
DR8       -7.73 dB   -19.21 dB      1:04 14-Bung!
DR12      -0.30 dB   -15.89 dB      6:20 15-Rockin’ In Rhythm
DR8       -6.89 dB   -18.56 dB      1:09 16-Bong!
DR12      -0.30 dB   -15.04 dB      2:38 17-Fuga
DR12      -0.30 dB   -15.23 dB      4:15 18-Guarda Che Luna
--------------------------------------------------------------------------------

Number of tracks:  18
Official DR value: DR10

Samplerate:        88200 Hz
Channels:          2
Bits per sample:   24
Bitrate:           2216 kbps
Codec:             FLAC
================================================================================
Приватный:
Нет (DHT включён)
Размер:
1.01 Гб (1,085,727,073 байт) » файлов: 23
Участники:
0 раздают, 0 качают (0 участников всего)
Внешние участники:
5 раздают, 1 качают (6 участников всего) [ Обновить ]
Скорость:
2.89 Мб/c 0/c
Есть вопросы - пишите личное сообщение пользователю M0p94ok.
13:13
20
Нет комментариев. Ваш будет первым!