Поиск

2019 Henry Lowther and Still Waters - Can't Believe, Won't Believe {GFMA} [24-44.1]

2019 Henry Lowther and Still Waters - Can't Believe, Won't Believe {GFMA} [24-44.1]
Стили:
Дата издания диска:
5 января 2022
Носитель:
WEB
Формат:
PCM
Тип рипа:
tracks
Контейнер:
FLAC (*.flac)
Количество каналов:
2.0
Разрядность/ЧД:
24/44,1
Битрейт аудио:
lossless
Время звучания:
00:47:37
Наличие сканов:
только обложка

1. Can't Believe, Won't Believe  07:36
2. Mateja Sleeps  07:47
3. Saippuakauppias  05:23
4. Amber  03:43
5. Lights Of The North Circlular  09:38
6. Something Like ...  06:42
7. Some Other Time   05:20
8. Epilogue - For Peter  01:25

Состав:
  •     Double Bass – Dave Green
  •     Drums – Paul Clarris
  •     Piano – Barry Green (4)
  •     Tenor Saxophone – Pete Hurt
  •     Trumpet, Flugelhorn – Henry Lowther
Лог проверки качества
foobar2000 1.4.2 / Dynamic Range Meter 1.1.1
log date: 2022-01-08 22:24:12
--------------------------------------------------------------------------------
Analyzed: Henry Lowther and Still Waters / Can't Believe, Won't Believe
--------------------------------------------------------------------------------
DR         Peak         RMS     Duration Track
--------------------------------------------------------------------------------
DR10      -0.92 dB   -14.33 dB      7:37 01-Can't Believe, Won't Believe
DR9       -0.98 dB   -14.17 dB      7:47 02-Mateja Sleeps
DR10      -0.97 dB   -13.77 dB      5:24 03-Saippuakauppias
DR9       -1.00 dB   -14.02 dB      3:43 04-Amber
DR10      -0.88 dB   -14.14 dB      9:39 05-Lights Of The North Circlular
DR10      -0.97 dB   -14.31 dB      6:42 06-Something Like ...
DR10      -0.97 dB   -14.56 dB      5:20 07-Some Other Time
DR9       -0.99 dB   -14.46 dB      1:25 08-Epilogue - For Peter
--------------------------------------------------------------------------------
Number of tracks:  8
Official DR value: DR10
Samplerate:        44100 Hz
Channels:          2
Bits per sample:   24
Bitrate:           1421 kbps
Codec:             FLAC
================================================================================
Приватный:
Нет (DHT включён)
Размер:
495.65 Мб (519,729,760 байт) » файлов: 9
Участники:
3 раздают, 0 качают (3 участников всего)
Внешние участники:
2 раздают, 1 качают (3 участников всего) [ Обновить ]
22:48
298
Нет комментариев. Ваш будет первым!