Поиск

2022 Jamie Breiwick & Jay Mollerskov - Solve for X {B Side} [24-44.1]

2022 Jamie Breiwick & Jay Mollerskov - Solve for X {B Side} [24-44.1]
Стили:
Дата издания диска:
7 января 2022
Носитель:
WEB
Формат:
PCM
Тип рипа:
tracks
Контейнер:
FLAC (*.flac)
Количество каналов:
2.0
Разрядность/ЧД:
24/44,1
Битрейт аудио:
lossless
Время звучания:
00:37:55
Наличие сканов:
только обложка

01 - Unfolding (06:53)
02 - Remainder (04:57)
03 - Heaps (03:26)
04 - Strata (04:39)
05 - Summoning Moons (04:26)
06 - Traces of Things (04:29)
07 - For Norm (04:53)
08 - Reflect (04:09)

Состав:
  • Jamie Breiwick, trumpet and flugelhorn
  • Jay Mollerskov, electronics
  • Nolan Breiwick, trumpet (8)


All compositions by Jamie Breiwick and Jay Mollerskov
All trumpets recorded by Jamie Breiwick at home
Edited, mixed, and mastered by Jay Mollerskov

Лог проверки качества
foobar2000 1.4.2 / Dynamic Range Meter 1.1.1
log date: 2022-01-10 08:20:26
--------------------------------------------------------------------------------
Analyzed: Jamie Breiwick / Solve for X
--------------------------------------------------------------------------------
DR         Peak         RMS     Duration Track
--------------------------------------------------------------------------------
DR11      -1.00 dB   -14.44 dB      6:54 01-Unfolding
DR9       -1.00 dB   -12.71 dB      4:57 02-Remainder
DR9       -1.00 dB   -12.44 dB      3:26 03-Heaps
DR9       -1.00 dB   -12.89 dB      4:39 04-Strata
DR11      -1.00 dB   -13.32 dB      4:27 05-Summoning Moons
DR18      -1.00 dB   -24.36 dB      4:30 06-Traces of Things
DR10      -1.00 dB   -14.11 dB      4:53 07-For Norm
DR10      -1.00 dB   -14.67 dB      4:10 08-Reflect
--------------------------------------------------------------------------------
Number of tracks:  8
Official DR value: DR11
Samplerate:        44100 Hz
Channels:          2
Bits per sample:   24
Bitrate:           1355 kbps
Codec:             FLAC
================================================================================
Скачивание доступно после регистрации!!
Приватный:
Нет (DHT включён)
Размер:
384.05 Мб (402,700,826 байт) » файлов: 9
Участники:
0 раздают, 0 качают (0 участников всего)
Внешние участники:
--- [ Обновить ]
10:53
338
Нет комментариев. Ваш будет первым!