Поиск

2021 Mátyás Bartha Trio - Self - Reflection {Alessa} [24-88.2]

2021 Mátyás Bartha Trio - Self - Reflection {Alessa} [24-88.2]
Дата издания диска:
1 ноября 2021
Номер по каталогу:
ALR 1099
Носитель:
WEB
Формат:
PCM
Тип рипа:
tracks
Контейнер:
FLAC (*.flac)
Количество каналов:
2.0
Разрядность/ЧД:
24/88,2
Битрейт аудио:
lossless
Время звучания:
00:59:57
Наличие сканов:
только обложка

01. They All Laughed  06:06
02. Self - Reflection  05:16
03. Stardust  06:53
04. Now Thank We All Our GodE  04:26
05. Easy Listening Blues   05:05
06. Untitled a Minor  05:24
07. All Through the Night  07:25
08. Untitled D Minor  06:30
09. Somewhere in the World  06:26
10. Lullaby of the Leaves  06:21

Состав:
  • Mátyás Bartha — piano
  • Danny Ziemann — bass
  • Christian Salfellner — drums
Лог проверки качества
foobar2000 1.4.2 / Dynamic Range Meter 1.1.1
log date: 2022-01-08 22:30:18
--------------------------------------------------------------------------------
Analyzed: Matyas Barta / Self - Reflection
--------------------------------------------------------------------------------
DR         Peak         RMS     Duration Track
--------------------------------------------------------------------------------
DR11      -0.01 dB   -14.04 dB      6:07 01-They All Laughed
DR12      -0.02 dB   -16.05 dB      5:17 02-Self - Reflection
DR11      -0.01 dB   -13.69 dB      6:54 03-Stardust
DR11      -0.01 dB   -12.36 dB      4:26 04-Now Thank We All Our God
DR14      -0.02 dB   -16.59 dB      5:06 05-Easy Listening Blues
DR11      -0.02 dB   -13.63 dB      5:24 06-Untitled a Minor
DR11      -0.01 dB   -12.84 dB      7:25 07-All Through the Night
DR11       0.00 dB   -13.59 dB      6:30 08-Untitled D Minor
DR14      -0.02 dB   -19.95 dB      6:26 09-Somewhere in the World
DR12       0.00 dB   -14.95 dB      6:22 10-Lullaby of the Leaves
--------------------------------------------------------------------------------
Number of tracks:  10
Official DR value: DR12
Samplerate:        88200 Hz
Channels:          2
Bits per sample:   24
Bitrate:           2547 kbps
Codec:             FLAC
================================================================================
09:30
364
Нет комментариев. Ваш будет первым!