Поиск

2019 Fred Hersch & The WDR Big Band - Begin Again {Palmetto} [24-44.1]

2019 Fred Hersch & The WDR Big Band - Begin Again {Palmetto} [24-44.1]
Стили:
Издатель (лейбл):

This album is available on our DC++ hub: dc.pro-jazz.com
Этот альбом доступен на нашем DC++ хабе: dc.pro-jazz.com

Треклист:

01. Begin Again (Hersch) - 8:23
02. Song Without Words, No.2: Ballad (Hersch) - 5:16
03. Havana (Hersch) - 6:33
04. Out Someplace (Blues for Matthew Shepard) (Hersch) - 5:27
05. Pastorale (Hersch) - 5:18
06. Rain Waltz (Hersch) - 7:40
07. The Big Easy (Hersch) - 8:05
08. Forward Motion (Hersch) - 3:54
09. The Orb (for Scott) (Hersch) - 5:12

Состав:

with The WDR Big Band

  • Vince Mendoza — arranger, conductor
  • Wim Both, Rob Bruynen, Andy Haderer, Ruud Breuls — trumpet
  • Johan Horlen, Karolina Strassmayer — alto saxophone
  • Olivier Peters, Paul Heller — tenor saxophone
  • Jens Neufang — baritone saxophone
  • Ludwig Nuss, Andrea Andreoli, Andy Hunter — trombone
  • Mattis Cederberg — bass trombone, tuba
  • Paul Shigihara — guitar
  • John Goldsby — bass
  • Hans Dekker — drums
Лог проверки качества
foobar2000 1.4.6 / Dynamic Range Meter 1.1.1
log date: 2019-09-09 19:41:55

--------------------------------------------------------------------------------
Analyzed: Fred Hersch & The WDR Big Band / Begin Again
--------------------------------------------------------------------------------

DR         Peak         RMS     Duration Track
--------------------------------------------------------------------------------
DR15      -0.18 dB   -19.74 dB      8:23 01-Begin Again
DR13      -1.49 dB   -19.36 dB      5:16 02-Song Without Words, No.2: Ballad
DR14      -0.04 dB   -18.15 dB      6:33 03-Havana
DR15      -0.29 dB   -21.17 dB      5:27 04-Out Someplace (Blues for Matthew Shepard)
DR13      -1.53 dB   -20.94 dB      5:18 05-Pastorale
DR13       0.00 dB   -16.81 dB      7:40 06-Rain Waltz
DR14      -0.07 dB   -18.24 dB      8:05 07-The Big Easy
DR13      -0.18 dB   -16.44 dB      3:54 08-Forward Motion
DR12      -7.29 dB   -23.85 dB      5:12 09-The Orb (for Scott)
--------------------------------------------------------------------------------

Number of tracks:  9
Official DR value: DR14

Samplerate:        44100 Hz
Channels:          2
Bits per sample:   24
Bitrate:           1170 kbps
Codec:             FLAC
================================================================================
10:27
683
Нет комментариев. Ваш будет первым!