Вы используете незарегистрированную версию компонента "Вкладки"!

Поиск

2015 George Cables - In Good Company {HighNote} [24-44.1]

2015 George Cables - In Good Company {HighNote} [24-44.1]
Стили:
Издатель (лейбл):
Доп. инфо:

Формат записи/Источник записи: [TR24][OF]
Наличие водяных знаков: Нет
Год издания/переиздания диска: 2015
Продолжительность: 01:01:42
Наличие сканов в содержимом раздачи: Буклет PDF
Источник (релизер): Qobuz

Контейнер: FLAC (*.flac)
Тип рипа: tracks
Разрядность: 24/44,1
Формат: PCM
Количество каналов: 2.0

Лог проверки качества
foobar2000 1.3.7 / Dynamic Range Meter 1.1.1
log date: 2019-05-26 03:18:38

--------------------------------------------------------------------------------
Analyzed: George Cables / In Good Company
--------------------------------------------------------------------------------

DR         Peak         RMS     Duration Track
--------------------------------------------------------------------------------
DR12      -1.88 dB   -16.12 dB      8:34 01-After the Morning
DR12      -1.11 dB   -15.74 dB      4:59 02-Mr. Anonymouse
DR13      -0.84 dB   -16.89 dB      6:47 03-Naima's Love Song
DR11      -1.86 dB   -14.66 dB      4:31 04-It Don't Mean a Thing (If It Ain't Got That Swing)
DR13      -1.45 dB   -17.30 dB      8:12 05-Lotus Blossom
DR14      -0.89 dB   -16.88 dB      6:25 06-Love You Madly
DR11      -1.63 dB   -14.67 dB      6:20 07-EVC
DR15      -1.10 dB   -19.58 dB      8:07 08-Lush Life
DR12      -1.23 dB   -15.76 dB      5:53 09-Voyage
DR13      -1.25 dB   -21.60 dB      1:54 10-Day Dream
--------------------------------------------------------------------------------

Number of tracks:  10
Official DR value: DR13

Samplerate:        44100 Hz
Channels:          2
Bits per sample:   24
Bitrate:           1090 kbps
Codec:             FLAC
================================================================================
Any questions - support@pro-jazz.com. Есть вопросы - support@pro-jazz.com
14:19
368
Нет комментариев. Ваш будет первым!