Вы используете незарегистрированную версию компонента "Вкладки"!

Поиск

2019 Dave Zinno Unisphere - Stories Told {Whaling City Sound} [24-44,1]

2019 Dave Zinno Unisphere - Stories Told {Whaling City Sound} [24-44,1]
Дата записи диска:
28 ноября - 29 ноября 2018
Дата издания диска:
5 апреля 2019
Издатель (лейбл):
Носитель:
WEB
Формат:
PCM
Тип рипа:
tracks+.cue
Контейнер:
APE (*.ape)
Количество каналов:
2.0
Разрядность/ЧД:
24/44,1
Битрейт аудио:
lossless
Время звучания:
01:06:24
Наличие сканов:
web
Страна-производитель диска (релиза):
USA
Релизёр (источник):
M0p94ok
Лог проверки качества
foobar2000 1.5.5 / Dynamic Range Meter 1.1.1
log date: 2020-09-23 10:19:46

--------------------------------------------------------------------------------
Analyzed: Dave Zinno Unisphere / Stories Told
--------------------------------------------------------------------------------

DR         Peak         RMS     Duration Track
--------------------------------------------------------------------------------
DR9       -0.52 dB   -10.72 dB      6:02 01-Neurótico
DR9       -0.80 dB   -11.97 dB      7:27 02-Larrytown
DR7       -0.84 dB   -10.63 dB      7:31 03-The Opener
DR8       -0.68 dB   -10.69 dB      7:20 04-Michelle
DR9       -1.77 dB   -13.64 dB      6:20 05-Requiem
DR7       -0.74 dB   -10.12 dB      6:12 06-Tá
DR8       -0.46 dB   -11.68 dB     10:09 07-Seventh Hour
DR8       -0.74 dB   -11.00 dB      6:47 08-Backup
DR9       -0.37 dB   -11.42 dB      8:38 09-Triste
--------------------------------------------------------------------------------

Number of tracks:  9
Official DR value: DR8

Samplerate:        44100 Hz
Channels:          2
Bits per sample:   24
Bitrate:           1716 kbps
Codec:             FLAC
================================================================================
Any questions - support@pro-jazz.com. Есть вопросы - support@pro-jazz.com
10:25
246
Нет комментариев. Ваш будет первым!