Вы используете незарегистрированную версию компонента "Вкладки"!

Поиск

2020 Bill Frisell, Rudy Royston, Thomas Morgan - Valentine {Blue Note} [24-88,2]

2020 Bill Frisell, Rudy Royston, Thomas Morgan - Valentine {Blue Note} [24-88,2]
Место записи:
Flora Recording & Playback Portland, OR, USA
Дата издания диска:
14 августа 2020
Издатель (лейбл):
Битрейт аудио:
lossless
Доп. инфо:

Формат записи/Источник записи: [TR24][OF]
Наличие водяных знаков: Нет
Год издания: 2020
Продолжительность: 01:05:27
Наличие сканов в содержимом раздачи: Только обложка альбома
Контейнер: FLAC (*.flac)
Тип рипа: tracks
Разрядность: 24/88.2
Формат: PCM
Количество каналов: 2.0
Источник (релизер): qobuz.com

Лог проверки качества
foobar2000 1.4.8 / Dynamic Range Meter 1.1.1
log date: 2020-08-14 11:52:54

--------------------------------------------------------------------------------
Analyzed: Bill Frisell / Valentine
--------------------------------------------------------------------------------

DR         Peak         RMS     Duration Track
--------------------------------------------------------------------------------
DR8       -0.20 dB    -9.78 dB      4:59 01-Baba Drame
DR10      -0.47 dB   -13.89 dB      2:59 02-Hour Glass
DR9       -0.28 dB   -11.94 dB      6:28 03-Valentine
DR10      -0.20 dB   -12.48 dB      6:04 04-Levees
DR11      -0.28 dB   -14.70 dB      5:11 05-Winter Always Turns To Spring
DR10      -0.20 dB   -12.43 dB      6:05 06-Keep Your Eyes Open
DR11      -0.28 dB   -13.54 dB      7:23 07-A Flower Is A Lovesome Thing
DR7       -0.28 dB   -10.14 dB      3:19 08-Electricity
DR11      -0.28 dB   -13.30 dB      4:15 09-Wagon Wheels
DR10      -0.20 dB   -13.75 dB      3:19 10-Aunt Mary
DR11      -0.20 dB   -12.89 dB      5:56 11-What The World Needs Now Is Love
DR10      -0.28 dB   -12.45 dB      3:09 12-Where Do We Go?
DR12      -0.28 dB   -14.28 dB      6:26 13-We Shall Overcome
--------------------------------------------------------------------------------

Number of tracks:  13
Official DR value: DR10
Samplerate:        88200 Hz
Channels:          2
Bits per sample:   24
Bitrate:           2487 kbps
Codec:             FLAC
================================================================================
Any questions - support@pro-jazz.com. Есть вопросы - support@pro-jazz.com
13:17
579
Нет комментариев. Ваш будет первым!