Вы используете незарегистрированную версию компонента "Вкладки"!

Поиск

2020 Paul Brown - Ones Upon a Time {Woodward Avenue} [24-48]

2020 Paul Brown - Ones Upon a Time {Woodward Avenue} [24-48]
Битрейт аудио:
lossless
Доп. инфо:

Формат записи/Источник записи: [TR24][OF]
Наличие водяных знаков: Нет
Год издания: 2020
Издатель (лейбл): Woodward Avenue Records
Продолжительность: 00:44:44
Наличие сканов в содержимом раздачи: Только обложка альбома
Контейнер: FLAC (*.flac)
Тип рипа: tracks
Разрядность: 24/48
Формат: PCM
Количество каналов: 2.0
Источник (релизер): highresaudio.com

Лог проверки качества
foobar2000 1.4.8 / Dynamic Range Meter 1.1.1
log date: 2020-08-14 10:57:56

--------------------------------------------------------------------------------
Analyzed: Paul Brown / Ones Upon a Time
--------------------------------------------------------------------------------

DR         Peak         RMS     Duration Track
--------------------------------------------------------------------------------
DR7       -0.29 dB    -9.24 dB      4:23 01-Nothin' But Love
DR9       -0.35 dB   -11.09 dB      4:36 02-Mind Games
DR7       -0.35 dB    -8.18 dB      3:56 03-Grazing in the Grass
DR7       -0.35 dB    -8.92 dB      4:07 04-Deep Into It
DR9       -0.35 dB   -10.34 dB      3:59 05-Softly, as in a Morning Sunrise
DR8       -0.35 dB    -9.41 dB      5:16 06-Now 'Til Forever
DR9       -0.35 dB   -10.67 dB      5:07 07-Notorious
DR8       -0.35 dB    -9.34 dB      4:12 08-Just Chillin'
DR8       -0.35 dB    -9.34 dB      4:12 09-Tequila Moon
DR7       -0.35 dB    -8.47 dB      5:03 10-24-7
--------------------------------------------------------------------------------

Number of tracks:  10
Official DR value: DR8
Samplerate:        48000 Hz
Channels:          2
Bits per sample:   24
Bitrate:           1791 kbps
Codec:             FLAC
================================================================================
Any questions - support@pro-jazz.com. Есть вопросы - support@pro-jazz.com
00:24
281
Нет комментариев. Ваш будет первым!