Вы используете незарегистрированную версию компонента "Вкладки"!

Поиск

2019 Dakota Staton - Abracadabra {Jazz Extension} [24-44,1]

2019 Dakota Staton - Abracadabra {Jazz Extension} [24-44,1]
Стили:
Битрейт аудио:
lossless
Доп. инфо:

Формат записи/Источник записи: [TR24][OF]
Наличие водяных знаков: Нет
Издание: Anthology
Год издания/переиздания диска: 2019
Издатель (лейбл): Jazz Extension
Продолжительность: 00:43:30
Наличие сканов в содержимом раздачи: Только обложка альбома

Контейнер: FLAC (*.flac)
Тип рипа: tracks
Разрядность: 24/44,1
Формат: WAV (flac.ape.wv)
Количество каналов: 2.0

Источник (релизер): redacted <-- qobuz

Лог проверки качества
foobar2000 1.5.3 / Dynamic Range Meter 1.1.1
log date: 2020-05-06 12:18:24

--------------------------------------------------------------------------------
Analyzed: Dakota Staton / Abracadabra
--------------------------------------------------------------------------------

DR         Peak         RMS     Duration Track
--------------------------------------------------------------------------------
DR5       -0.90 dB    -7.29 dB      2:43 01-Abracadabra
DR8       -0.98 dB   -10.66 dB      2:16 02-Say It Ain't So, Joe
DR7       -1.01 dB    -9.99 dB      3:04 03-Detour Ahead
DR7       -0.87 dB    -8.97 dB      2:38 04-A Dangerous Age
DR6       -0.90 dB    -8.79 dB      2:30 05-Morning, Noon or Night
DR6       -0.99 dB    -8.44 dB      2:14 06-My Heart's Delight
DR6       -0.88 dB    -8.61 dB      2:33 07-I Hear Music
DR6       -0.91 dB    -8.80 dB      2:07 08-How Does It Feel
DR7       -1.04 dB    -9.72 dB      2:39 09-The Nearness of You
DR7       -0.82 dB    -9.82 dB      3:04 10-Porgy
DR8       -0.91 dB   -10.49 dB      2:26 11-So in Love
DR6       -0.85 dB    -8.20 dB      2:39 12-For the Rest of My Life
DR5       -0.90 dB    -7.24 dB      2:55 13-Don't Mean Maybe
DR6       -0.96 dB    -9.87 dB      2:04 14-In the Night
DR8       -0.94 dB   -10.57 dB      2:24 15-The Party's Over
DR6       -0.88 dB    -7.73 dB      2:15 16-A Little You
DR7       -0.87 dB    -9.79 dB      2:59 17-(I'm Left with The) Blues in My Heart
--------------------------------------------------------------------------------

Number of tracks:  17
Official DR value: DR7

Samplerate:        44100 Hz
Channels:          2
Bits per sample:   24
Bitrate:           1437 kbps
Codec:             FLAC
================================================================================
Any questions - support@pro-jazz.com. Есть вопросы - support@pro-jazz.com
17:57
317
Нет комментариев. Ваш будет первым!