Вы используете незарегистрированную версию компонента "Вкладки"!

Поиск

2020 Alabaster DePlume - To Cy & Lee_ Instrumentals Vol. 1 {IARC0030} [24-44,1]

2020 Alabaster DePlume - To Cy & Lee_ Instrumentals Vol. 1 {IARC0030} [24-44,1]
Битрейт аудио:
lossless
Доп. инфо:

Формат записи/Источник записи: [TR24][OF]
Наличие водяных знаков: Нет
Год издания/переиздания диска: 2020
Издатель (лейбл): International Anthem Recording Company / IARC0030
Продолжительность: 00:44:42
Наличие сканов в содержимом раздачи: Только обложка альбома

Контейнер: FLAC (*.flac)
Тип рипа: tracks
Разрядность: 24/44,1
Формат: PCM
Количество каналов: 2.0
Источник (релизер): https://intlanthem.bandcamp.com/album/to-cy-lee-instrumentals-vol-1

 
Состав

Alabaster DePlume – vocal, tenor sax, guitar; Ríoghnach Connolly – voice, flute; Jess Connor – voice; Ellis Davies – electric guitar; John Ellis – pianette, clavinette, piano; Jessica Macdonald – cello; Hannah Miller – cello; Bi Roxby – voice; Paddy Steer – percussion, bass pedals; Leon Boydon – acoustic guitar; Daniel Inzani – piano; Beth Porter – cello; Lorenzo Prati – tenor sax; Dan Truen – drums; Will Calderbank – cello; Lorien Edwards – bass guitar; Philip Howley – drums, percussion; Mikey Kenney – violin; Pascal Makonese – m’bira; Kirsty McGee – bass flute; Tim Vincent Smith – violin; Rick Weedon – drums, percussion; Chestnutt – synth; Danalogue – piano, voice; James Howard – electric guitar; Sarathy Korwar – drums; Donna Thompson – voice.

Arranged by Alabaster DePlume, with Bi Roxby (track 3), Ellis Davies (track 11), and Danalogue (track 7).

Tracks 1, 3, 8 & 11 from "Copernicus" (2012) recorded at Limefield Studios and Madwaltz; produced & engineered by Paddy Steer and John Ellis; mixed by Paddy Steer.

Track 9 from "The Jester" (2013) recorded in Bristol; produced by Alabaster DePlume and Daniel Inzani with Mark Dressler; mixed & engineered by Mark Dressler.

Tracks 4, 5, 6 & 10 from "Peach" (2015) recorded at Limefield Studios, Madwaltz, Antwerp Mansion and Total Refreshment Centre; produced by Alabaster DePlume; engineered by Paddy Steer, John Ellis and Karl Sveinsson; mixed by Paddy Steer.

Tracks 2 & 7 (2019) recorded at Total Refreshment Centre; produced by Alabaster DePlume; mixed & engineered by Kristian Craig Robinson.

Album Mastered by David Allen (based on original tape masters of "Copernicus" by George Atkins at 80 Hertz).

Лог проверки качества
foobar2000 1.4.5 / Замер динамического диапазона (DR) 1.1.1
Дата отчёта:  2020-05-06 13:50:11

--------------------------------------------------------------------------------
Анализ:   Alabaster dePlume / To Cy & Lee: Instrumentals Vol. 1
--------------------------------------------------------------------------------

DR         Пики         RMS           Продолжительность трека
--------------------------------------------------------------------------------
DR10      -0.11 дБ   -13.22 дБ      4:53 1-Visit Croatia
DR9       -0.11 дБ   -11.93 дБ      5:05 2-What's Missing
DR9       -0.12 дБ   -11.49 дБ      2:55 3-Song Of The Foundling
DR7       -0.55 дБ   -10.09 дБ      2:20 4-Whisky Story Time
DR9       -0.12 дБ   -11.51 дБ      3:40 5-Not Now Jesus
DR8       -0.11 дБ   -12.74 дБ      3:50 6-If You're Sure You Want To
DR8       -0.55 дБ   -12.46 дБ      6:41 7-The Lucky Ones (feat. Danalogue)
DR8       -0.11 дБ   -10.31 дБ      3:52 8-Why, Buzzardman, Why
DR8       -0.11 дБ   -11.12 дБ      3:32 9-Not My Ask
DR8       -0.11 дБ   -11.28 дБ      2:26 10-Turpentine
DR8       -0.11 дБ   -10.24 дБ      5:28 11-I Hope
--------------------------------------------------------------------------------

Количество треков: 11
Реальные значения DR: DR8

Частота:   44100 Гц
Каналов:   2
Разрядность:   24
Битрейт:   1469 кбит/с
Кодек:   FLAC
================================================================================
Any questions - support@pro-jazz.com. Есть вопросы - support@pro-jazz.com
16:50
276
Нет комментариев. Ваш будет первым!