Вы используете незарегистрированную версию компонента "Вкладки"!

Поиск

2013 Musica Nuda (Petra Magoni & Ferruccio Spinetti) - Banda Larga {Blue Note} [24-48]

2013 Musica Nuda (Petra Magoni & Ferruccio Spinetti) - Banda Larga {Blue Note} [24-48]
Стили:
Издатель (лейбл):
Битрейт аудио:
lossless
Лог проверки качества
foobar2000 1.1.15 / Dynamic Range Meter 1.1.1
log date: 2020-05-06 12:24:23

--------------------------------------------------------------------------------
Analyzed: Musica Nuda / Banda Larga
--------------------------------------------------------------------------------

DR         Peak         RMS     Duration Track
--------------------------------------------------------------------------------
DR9        0.00 dB   -12.54 dB      0:49 01-Preludio Aria c'e'
DR9        0.00 dB   -12.04 dB      3:06 02-Aria c'e'
DR10      -0.19 dB   -13.39 dB      2:41 03-Des ronds dans l'eau
DR5       -0.06 dB    -6.57 dB      2:49 06-Game of Taking Chances
DR5        0.00 dB    -9.52 dB      3:45 07-Libera
DR7        0.00 dB   -13.12 dB      1:01 08-Preludio um Outro Olhar
DR11       0.00 dB   -14.76 dB      4:15 09-Um Outro Olhar
DR11       0.00 dB   -13.87 dB      3:53 10-Spina Dorsale
DR11      -0.07 dB   -14.78 dB      1:09 11-Luele
DR9       -0.04 dB   -10.71 dB      3:30 12-Carica Erotica
DR11      -0.04 dB   -14.08 dB      1:17 13-Preludio Lirico Lirica
DR8        0.00 dB   -11.03 dB      3:21 14-Lirico Lirica
DR8        0.00 dB   -10.42 dB      3:46 15-Le Cose
DR12      -0.12 dB   -15.61 dB      0:56 16-Japan
DR6        0.00 dB    -8.14 dB      3:01 17-Luna Suadente
DR10      -0.02 dB   -14.90 dB      1:11 18-Preludio Tu
DR10      -0.02 dB   -13.47 dB      2:24 19-Tu la prima volta di tutto
DR7        0.00 dB   -10.24 dB      4:29 20-Les tam-tam du paradis
--------------------------------------------------------------------------------

Number of tracks:  18
Official DR value: DR9

Samplerate:        48000 Hz
Channels:          2
Bits per sample:   24
Bitrate:           1593 kbps
Codec:             FLAC
================================================================================
Any questions - support@pro-jazz.com. Есть вопросы - support@pro-jazz.com
20:24
319
Нет комментариев. Ваш будет первым!