Вы используете незарегистрированную версию компонента "Вкладки"!

Поиск

2019 Chris Gall & Bernhard Schimpelsberger - Studio Konzert for Headphones {Neuklang} [24-96]

2019 Chris Gall & Bernhard Schimpelsberger - Studio Konzert for Headphones {Neuklang} [24-96]
Издатель (лейбл):
Битрейт аудио:
lossless
Доп. инфо:

Формат записи/Источник записи: [TR24][OF]
Наличие водяных знаков: Нет
Год издания/переиздания диска: 2019
Издатель (лейбл): Neuklang
Продолжительность: 00:22:14
Наличие сканов в содержимом раздачи: Только обложка альбома
Источник (релизер): highresaudio

Контейнер: FLAC (*.flac)
Тип рипа: tracks
Разрядность: 24/96
Формат: PCM
Количество каналов: 2.0

Лог проверки качества
foobar2000 1.3.7 / Dynamic Range Meter 1.1.1
log date: 2019-09-04 11:20:05

--------------------------------------------------------------------------------
Analyzed: Chris Gall & Bernhard Schimpelsberger / Studio Konzert for Headphones
--------------------------------------------------------------------------------

DR         Peak         RMS     Duration Track
--------------------------------------------------------------------------------
DR12      -1.88 dB   -19.36 dB      4:38 01-Inner Perspectives
DR12      -0.69 dB   -17.75 dB      7:01 02-Good Morning, Little Magpie!
DR14      -1.40 dB   -20.06 dB      5:17 03-Ballad for A&m
DR16      -4.03 dB   -25.24 dB      5:18 04-Mian
--------------------------------------------------------------------------------

Number of tracks:  4
Official DR value: DR14

Samplerate:        96000 Hz
Channels:          2
Bits per sample:   24
Bitrate:           2117 kbps
Codec:             FLAC
================================================================================
Any questions - support@pro-jazz.com. Есть вопросы - support@pro-jazz.com
13:19
271
Нет комментариев. Ваш будет первым!