Вы используете незарегистрированную версию компонента "Вкладки"!

Поиск

2012 Susie Arioli feat. Jordan Officer - All the Way {2xHD} [24-44,1]

2012 Susie Arioli feat. Jordan Officer - All the Way {2xHD} [24-44,1]
Стили:
Издатель (лейбл):
Битрейт аудио:
lossless
Доп. инфо:

Формат записи/Источник записи: [TR24][OF]
Год издания/переиздания диска: 2012
Издатель (лейбл): 2xHD
Продолжительность: 00:43:58
Наличие сканов в содержимом раздачи: Буклет PDF

Контейнер: FLAC (*.flac)
Тип рипа: tracks
Разрядность: 24/44,1
Количество каналов: 2.0

Источник (релизер): PROSTUDIOMASTERS

Лог проверки качества
foobar2000 1.3.7 / Dynamic Range Meter 1.1.1
log date: 2019-08-14 11:33:37

--------------------------------------------------------------------------------
Analyzed: Susie Arioli / All the Way
--------------------------------------------------------------------------------

DR         Peak         RMS     Duration Track
--------------------------------------------------------------------------------
DR9       -0.83 dB   -12.54 dB      4:03 01-My Funny Valentine
DR9       -0.77 dB   -12.08 dB      4:15 02-Time on My Hands
DR8       -0.43 dB   -10.15 dB      3:44 03-Here's to the Losers
DR9       -0.87 dB   -11.11 dB      3:06 04-All the Way
DR9       -1.26 dB   -12.21 dB      2:55 05-Here's That Rainy Day
DR9       -0.67 dB   -11.14 dB      2:52 06-It's Always You
DR10      -1.22 dB   -14.45 dB      4:54 07-Forgetful
DR10      -1.21 dB   -13.39 dB      4:22 08-There's A Lull in My Life
DR10      -1.45 dB   -14.36 dB      2:35 09-Come Rain or Come Shine
DR9       -0.40 dB   -11.45 dB      4:24 10-When Your Lover Has Gone
DR9       -0.32 dB   -10.83 dB      3:22 11-Un jour de difference (What a Difference A Day Made)
DR8       -0.78 dB   -10.71 dB      3:15 12-Looking for a Boy
DR8       -0.54 dB   -10.40 dB      3:16 13-Time after Time
--------------------------------------------------------------------------------

Number of tracks:  13
Official DR value: DR9

Samplerate:        44100 Hz
Channels:          2
Bits per sample:   24
Bitrate:           1516 kbps
Codec:             FLAC
================================================================================
Any questions - support@pro-jazz.com. Есть вопросы - support@pro-jazz.com
14:20
285
Нет комментариев. Ваш будет первым!