Вы используете незарегистрированную версию компонента "Вкладки"!

Поиск

1956-1962 Ahmad Jamal Trio - Complete Argo Sessions Vol.6 (2018) {Crazy Warthog} [24-44,1]

1956-1962 Ahmad Jamal Trio - Complete Argo Sessions Vol.6 (2018) {Crazy Warthog} [24-44,1]
Битрейт аудио:
lossless
Доп. инфо:

Формат записи/Источник записи: [TR24][OF]
Издание: Remastered
Год издания/переиздания диска: 2018
Издатель (лейбл): Crazy Warthog Media
Продолжительность: 00:57:28
Наличие сканов в содержимом раздачи: Нет

Контейнер: FLAC (*.flac)
Тип рипа: tracks
Разрядность: 24/44,1
Количество каналов: 2.0

Источник (релизер): Qobuz

Лог проверки качества
foobar2000 1.3.7 / Dynamic Range Meter 1.1.1
log date: 2019-07-02 05:04:39

--------------------------------------------------------------------------------
Analyzed: Ahmad Jamal / Complete Ahmad Jamal Trio Argo Sessions Vol.6 1956-1962
--------------------------------------------------------------------------------

DR         Peak         RMS     Duration Track
--------------------------------------------------------------------------------
DR15      -0.14 dB   -19.36 dB      5:03 01-Im Old Fashioned
DR13      -0.01 dB   -17.27 dB      8:15 02-We Kiss In a Shadow
DR14       0.00 dB   -17.33 dB      2:14 03-Chi-Town (aka Gem)
DR14      -2.20 dB   -21.45 dB      5:05 04-We Kiss in a Shadow
DR17      -3.28 dB   -25.92 dB      4:00 05-Sweet and Lovely
DR14      -4.81 dB   -23.31 dB      4:00 06-The Party's Over
DR14      -4.30 dB   -23.24 dB      4:03 07-Love for Sale
DR15      -5.29 dB   -28.30 dB      2:30 08-Snowfall
DR15      -3.85 dB   -21.97 dB      7:42 09-Broadway
DR16      -0.01 dB   -24.05 dB      3:59 10-Willow Weep for Me
DR14      -0.81 dB   -20.61 dB      3:52 11-Autumn Leaves
DR14      -1.12 dB   -21.54 dB      4:28 12-Isn't It Romantic
DR14      -6.12 dB   -25.60 dB      2:23 13-The Breeze and I
--------------------------------------------------------------------------------

Number of tracks:  13
Official DR value: DR15

Samplerate:        44100 Hz
Channels:          2
Bits per sample:   24
Bitrate:           1308 kbps
Codec:             FLAC
================================================================================
Any questions - support@pro-jazz.com. Есть вопросы - support@pro-jazz.com
14:46
327
Нет комментариев. Ваш будет первым!