Вы используете незарегистрированную версию компонента "Вкладки"!

Поиск

2020 Ray Mantilla - Rebirth {Savant} [24-96]

2020 Ray Mantilla - Rebirth {Savant} [24-96]
Издатель (лейбл):
Битрейт аудио:
lossless
Доп. инфо:

Формат записи/Источник записи: [TR24][OF]
Год издания/переиздания диска: 2020
Издатель (лейбл): Savant
Продолжительность: 00:56:47
Наличие сканов в содержимом раздачи: Буклет PDF

Контейнер: FLAC (*.flac)
Тип рипа: tracks
Разрядность: 24/96
Количество каналов: 2.0

Источник (релизер): Qobuz

Лог проверки качества
foobar2000 1.4.3 / Dynamic Range Meter 1.1.1
log date: 2020-06-28 06:44:13

--------------------------------------------------------------------------------
Analyzed: Ray Mantilla / Rebirth
--------------------------------------------------------------------------------

DR         Peak         RMS     Duration Track
--------------------------------------------------------------------------------
DR10      -0.61 dB   -12.65 dB      6:12 01-Moondance
DR12      -0.61 dB   -14.12 dB      5:22 02-Dat Dere
DR10      -0.61 dB   -12.59 dB      5:25 03-Hit the Road Jack
DR9       -0.61 dB   -12.60 dB      7:30 04-Mia
DR12      -0.61 dB   -14.07 dB      5:31 05-Philly Mambo
DR10      -0.61 dB   -13.65 dB      5:48 06-Cumbia Jazz Fusion Experimental
DR11      -0.61 dB   -13.24 dB      4:37 07-Yuyo
DR13      -0.61 dB   -17.66 dB      5:48 08-Preciosa
DR11      -0.61 dB   -14.27 dB      4:06 09-Martinez
DR12      -0.61 dB   -15.11 dB      6:31 10-Rebirth Bata Rumba Experimental
--------------------------------------------------------------------------------

Number of tracks:  10
Official DR value: DR11

Samplerate:        96000 Hz
Channels:          2
Bits per sample:   24
Bitrate:           2413 kbps
Codec:             FLAC
================================================================================
Any questions - support@pro-jazz.com. Есть вопросы - support@pro-jazz.com
07:45
527
Нет комментариев. Ваш будет первым!