Вы используете незарегистрированную версию компонента "Вкладки"!

Поиск

2019 Chico O'Farrill - All that Jazz, Vol. 117 - Afro-Cuban Rhythm {Jube Legend} [24-48]

2019 Chico O'Farrill - All that Jazz, Vol. 117 - Afro-Cuban Rhythm {Jube Legend} [24-48]
Носитель:
WEB
Формат:
PCM
Тип рипа:
tracks+.cue
Контейнер:
FLAC (*.flac)
Количество каналов:
2.0
Разрядность/ЧД:
24/48
Битрейт аудио:
lossless
Время звучания:
01:13:28
Наличие сканов:
только обложка
Страна-производитель диска (релиза):
USA
Релизёр (источник):
M0p94ok
Лог проверки качества
foobar2000 1.4.3 / Dynamic Range Meter 1.1.1
log date: 2020-05-30 09:32:37

--------------------------------------------------------------------------------
Analyzed: Chico O'Farrill / All that Jazz, Vol. 117: Afro-Cuban Rhythm - Chico O'Farrill (2019 Remaster)
--------------------------------------------------------------------------------

DR         Peak         RMS     Duration Track
--------------------------------------------------------------------------------
DR13       0.00 dB   -16.03 dB     17:35 01-Afro-Cuban Jazz Suite No. 1: Introduction - Canción - Mambo - 6/8 - Jazz - Rumba abierta
DR11       0.00 dB   -13.62 dB     17:04 02-Afro-Cuban Jazz Suite No. 2: Introduction - Pregón - 6/8 - Jazz - Canción antigua - Rumba
DR11       0.00 dB   -12.88 dB      3:06 03-Havana Special
DR11       0.00 dB   -12.68 dB      3:05 04-Cuban Blues
DR11       0.00 dB   -14.21 dB      3:15 05-Fiesta Time
DR10       0.00 dB   -12.45 dB      2:38 06-Alemandra
DR10       0.00 dB   -12.57 dB      2:45 07-Duerme
DR11       0.00 dB   -14.54 dB      2:42 08-Avocadoes
DR11       0.00 dB   -14.07 dB      2:56 09-Disappearance
DR11       0.00 dB   -12.63 dB      2:45 10-Mambo
DR12       0.00 dB   -14.91 dB      2:44 11-Taboo
DR12       0.00 dB   -13.55 dB      2:33 12-Sin titulo: Sin título
--------------------------------------------------------------------------------

Number of tracks:  12
Official DR value: DR11

Samplerate:        48000 Hz
Channels:          2
Bits per sample:   24
Bitrate:           901 kbps
Codec:             FLAC
================================================================================
Any questions - support@pro-jazz.com. Есть вопросы - support@pro-jazz.com
10:26
274
Нет комментариев. Ваш будет первым!